  0
SECTION
  2
HEADER
  9
$ACADVER
  1
AC1015
  9
$ACADMAINTVER
 70
    20
  9
$DWGCODEPAGE
  3
ANSI_932
  9
$INSBASE
 10
0.0
 20
0.0
 30
0.0
  9
$EXTMIN
 10
2884.985198394827
 20
3667.665609795282
 30
0.0
  9
$EXTMAX
 10
4884.985198394827
 20
5167.665609795282
 30
0.0
  9
$LIMMIN
 10
0.0
 20
0.0
  9
$LIMMAX
 10
420.0
 20
297.0
  9
$ORTHOMODE
 70
     1
  9
$REGENMODE
 70
     1
  9
$FILLMODE
 70
     1
  9
$QTEXTMODE
 70
     0
  9
$MIRRTEXT
 70
     0
  9
$LTSCALE
 40
10.0
  9
$ATTMODE
 70
     1
  9
$TEXTSIZE
 40
2.5
  9
$TRACEWID
 40
1.0
  9
$TEXTSTYLE
  7
STANDARD
  9
$CLAYER
  8
納まり
  9
$CELTYPE
  6
BYLAYER
  9
$CECOLOR
 62
   256
  9
$CELTSCALE
 40
1.0
  9
$DISPSILH
 70
     0
  9
$DIMSCALE
 40
20.0
  9
$DIMASZ
 40
2.0
  9
$DIMEXO
 40
1.0
  9
$DIMDLI
 40
7.0
  9
$DIMRND
 40
0.0
  9
$DIMDLE
 40
0.0
  9
$DIMEXE
 40
0.0
  9
$DIMTP
 40
0.0
  9
$DIMTM
 40
0.0
  9
$DIMTXT
 40
2.0
  9
$DIMCEN
 40
1.0
  9
$DIMTSZ
 40
0.0
  9
$DIMTOL
 70
     0
  9
$DIMLIM
 70
     0
  9
$DIMTIH
 70
     0
  9
$DIMTOH
 70
     0
  9
$DIMSE1
 70
     0
  9
$DIMSE2
 70
     0
  9
$DIMTAD
 70
     1
  9
$DIMZIN
 70
    12
  9
$DIMBLK
  1
OPEN
  9
$DIMASO
 70
     1
  9
$DIMSHO
 70
     1
  9
$DIMPOST
  1

  9
$DIMAPOST
  1

  9
$DIMALT
 70
     0
  9
$DIMALTD
 70
     2
  9
$DIMALTF
 40
25.4
  9
$DIMLFAC
 40
1.0
  9
$DIMTOFL
 70
     1
  9
$DIMTVP
 40
0.0
  9
$DIMTIX
 70
     1
  9
$DIMSOXD
 70
     0
  9
$DIMSAH
 70
     0
  9
$DIMBLK1
  1

  9
$DIMBLK2
  1

  9
$DIMSTYLE
  2
D20
  9
$DIMCLRD
 70
   256
  9
$DIMCLRE
 70
   256
  9
$DIMCLRT
 70
   256
  9
$DIMTFAC
 40
1.0
  9
$DIMGAP
 40
0.7
  9
$DIMJUST
 70
     0
  9
$DIMSD1
 70
     0
  9
$DIMSD2
 70
     0
  9
$DIMTOLJ
 70
     1
  9
$DIMTZIN
 70
     0
  9
$DIMALTZ
 70
     0
  9
$DIMALTTZ
 70
     0
  9
$DIMUPT
 70
     0
  9
$DIMDEC
 70
     0
  9
$DIMTDEC
 70
     0
  9
$DIMALTU
 70
     2
  9
$DIMALTTD
 70
     2
  9
$DIMTXSTY
  7
ＭＳ ゴシック
  9
$DIMAUNIT
 70
     0
  9
$DIMADEC
 70
     0
  9
$DIMALTRND
 40
0.0
  9
$DIMAZIN
 70
     2
  9
$DIMDSEP
 70
    46
  9
$DIMATFIT
 70
     3
  9
$DIMFRAC
 70
     0
  9
$DIMLDRBLK
  1
OPEN
  9
$DIMLUNIT
 70
     2
  9
$DIMLWD
 70
    -2
  9
$DIMLWE
 70
    -2
  9
$DIMTMOVE
 70
     2
  9
$LUNITS
 70
     2
  9
$LUPREC
 70
     4
  9
$SKETCHINC
 40
1.0
  9
$FILLETRAD
 40
0.0
  9
$AUNITS
 70
     1
  9
$AUPREC
 70
     4
  9
$MENU
  1
acad
  9
$ELEVATION
 40
0.0
  9
$PELEVATION
 40
0.0
  9
$THICKNESS
 40
0.0
  9
$LIMCHECK
 70
     0
  9
$CHAMFERA
 40
0.0
  9
$CHAMFERB
 40
0.0
  9
$CHAMFERC
 40
20.0
  9
$CHAMFERD
 40
0.0
  9
$SKPOLY
 70
     0
  9
$TDCREATE
 40
2451345.651469907
  9
$TDUCREATE
 40
2451345.276472072
  9
$TDUPDATE
 40
2457883.487662037
  9
$TDUUPDATE
 40
2457883.112662037
  9
$TDINDWG
 40
0.4080773380
  9
$TDUSRTIMER
 40
0.4080773380
  9
$USRTIMER
 70
     1
  9
$ANGBASE
 50
0.0
  9
$ANGDIR
 70
     0
  9
$PDMODE
 70
     0
  9
$PDSIZE
 40
0.0
  9
$PLINEWID
 40
0.0
  9
$SPLFRAME
 70
     0
  9
$SPLINETYPE
 70
     6
  9
$SPLINESEGS
 70
     8
  9
$HANDSEED
  5
E010
  9
$SURFTAB1
 70
     6
  9
$SURFTAB2
 70
     6
  9
$SURFTYPE
 70
     6
  9
$SURFU
 70
     6
  9
$SURFV
 70
     6
  9
$UCSBASE
  2

  9
$UCSNAME
  2

  9
$UCSORG
 10
0.0
 20
0.0
 30
0.0
  9
$UCSXDIR
 10
1.0
 20
0.0
 30
0.0
  9
$UCSYDIR
 10
0.0
 20
1.0
 30
0.0
  9
$UCSORTHOREF
  2

  9
$UCSORTHOVIEW
 70
     0
  9
$UCSORGTOP
 10
0.0
 20
0.0
 30
0.0
  9
$UCSORGBOTTOM
 10
0.0
 20
0.0
 30
0.0
  9
$UCSORGLEFT
 10
0.0
 20
0.0
 30
0.0
  9
$UCSORGRIGHT
 10
0.0
 20
0.0
 30
0.0
  9
$UCSORGFRONT
 10
0.0
 20
0.0
 30
0.0
  9
$UCSORGBACK
 10
0.0
 20
0.0
 30
0.0
  9
$PUCSBASE
  2

  9
$PUCSNAME
  2

  9
$PUCSORG
 10
0.0
 20
0.0
 30
0.0
  9
$PUCSXDIR
 10
1.0
 20
0.0
 30
0.0
  9
$PUCSYDIR
 10
0.0
 20
1.0
 30
0.0
  9
$PUCSORTHOREF
  2

  9
$PUCSORTHOVIEW
 70
     0
  9
$PUCSORGTOP
 10
0.0
 20
0.0
 30
0.0
  9
$PUCSORGBOTTOM
 10
0.0
 20
0.0
 30
0.0
  9
$PUCSORGLEFT
 10
0.0
 20
0.0
 30
0.0
  9
$PUCSORGRIGHT
 10
0.0
 20
0.0
 30
0.0
  9
$PUCSORGFRONT
 10
0.0
 20
0.0
 30
0.0
  9
$PUCSORGBACK
 10
0.0
 20
0.0
 30
0.0
  9
$USERI1
 70
     0
  9
$USERI2
 70
     0
  9
$USERI3
 70
     0
  9
$USERI4
 70
     0
  9
$USERI5
 70
     0
  9
$USERR1
 40
0.0
  9
$USERR2
 40
0.0
  9
$USERR3
 40
0.0
  9
$USERR4
 40
0.0
  9
$USERR5
 40
0.0
  9
$WORLDVIEW
 70
     1
  9
$SHADEDGE
 70
     3
  9
$SHADEDIF
 70
    70
  9
$TILEMODE
 70
     1
  9
$MAXACTVP
 70
    48
  9
$PINSBASE
 10
0.0
 20
0.0
 30
0.0
  9
$PLIMCHECK
 70
     0
  9
$PEXTMIN
 10
1.000000000000000E+20
 20
1.000000000000000E+20
 30
1.000000000000000E+20
  9
$PEXTMAX
 10
-1.000000000000000E+20
 20
-1.000000000000000E+20
 30
-1.000000000000000E+20
  9
$PLIMMIN
 10
0.0
 20
0.0
  9
$PLIMMAX
 10
420.0
 20
297.0
  9
$UNITMODE
 70
     0
  9
$VISRETAIN
 70
     1
  9
$PLINEGEN
 70
     0
  9
$PSLTSCALE
 70
     0
  9
$TREEDEPTH
 70
  3020
  9
$CMLSTYLE
  2
STANDARD
  9
$CMLJUST
 70
     0
  9
$CMLSCALE
 40
20.0
  9
$PROXYGRAPHICS
 70
     1
  9
$MEASUREMENT
 70
     1
  9
$CELWEIGHT
370
    -1
  9
$ENDCAPS
280
     0
  9
$JOINSTYLE
280
     0
  9
$LWDISPLAY
290
     0
  9
$INSUNITS
 70
     0
  9
$HYPERLINKBASE
  1

  9
$STYLESHEET
  1
monochrome.ctb
  9
$XEDIT
290
     1
  9
$CEPSNTYPE
380
     0
  9
$PSTYLEMODE
290
     1
  9
$FINGERPRINTGUID
  2
{86465F33-69AB-4278-8923-9A710E1C512E}
  9
$VERSIONGUID
  2
{11C8044A-3E34-F44D-BB9F-143A388AF888}
  9
$EXTNAMES
290
     1
  9
$PSVPSCALE
 40
0.0
  9
$OLESTARTUP
290
     0
  0
ENDSEC
  0
SECTION
  2
CLASSES
  0
CLASS
  1
DICTIONARYVAR
  2
AcDbDictionaryVar
  3
ObjectDBX Classes
 90
        0
280
     0
281
     0
  0
CLASS
  1
ACDBDICTIONARYWDFLT
  2
AcDbDictionaryWithDefault
  3
ObjectDBX Classes
 90
        0
280
     0
281
     0
  0
CLASS
  1
ACDBPLACEHOLDER
  2
AcDbPlaceHolder
  3
ObjectDBX Classes
 90
        0
280
     0
281
     0
  0
CLASS
  1
LAYOUT
  2
AcDbLayout
  3
ObjectDBX Classes
 90
        0
280
     0
281
     0
  0
CLASS
  1
SORTENTSTABLE
  2
AcDbSortentsTable
  3
ObjectDBX Classes
 90
        0
280
     0
281
     0
  0
CLASS
  1
DIMASSOC
  2
AcDbDimAssoc
  3
"AcDbDimAssoc|Product Desc:     AcDim ARX App For Dimension|Company:          Autodesk, Inc.|WEB Address:      www.autodesk.com"
 90
    32768
280
     0
281
     0
  0
CLASS
  1
MATERIAL
  2
AcDbMaterial
  3
ObjectDBX Classes
 90
     1153
280
     0
281
     0
  0
CLASS
  1
VISUALSTYLE
  2
AcDbVisualStyle
  3
ObjectDBX Classes
 90
     4095
280
     0
281
     0
  0
CLASS
  1
TABLESTYLE
  2
AcDbTableStyle
  3
ObjectDBX Classes
 90
     4095
280
     0
281
     0
  0
CLASS
  1
SCALE
  2
AcDbScale
  3
ObjectDBX Classes
 90
     1153
280
     0
281
     0
  0
CLASS
  1
MLEADERSTYLE
  2
AcDbMLeaderStyle
  3
ACDB_MLEADERSTYLE_CLASS
 90
     4095
280
     0
281
     0
  0
CLASS
  1
ACDBSECTIONVIEWSTYLE
  2
AcDbSectionViewStyle
  3
ObjectDBX Classes
 90
     1025
280
     0
281
     0
  0
CLASS
  1
ACDBDETAILVIEWSTYLE
  2
AcDbDetailViewStyle
  3
ObjectDBX Classes
 90
     1025
280
     0
281
     0
  0
CLASS
  1
CELLSTYLEMAP
  2
AcDbCellStyleMap
  3
ObjectDBX Classes
 90
     1152
280
     0
281
     0
  0
ENDSEC
  0
SECTION
  2
TABLES
  0
TABLE
  2
VPORT
  5
8
330
0
100
AcDbSymbolTable
 70
     1
  0
VPORT
  5
DE69
330
8
100
AcDbSymbolTableRecord
100
AcDbViewportTableRecord
  2
*Active
 70
     0
 10
0.0
 20
0.0
 11
1.0
 21
1.0
 12
4455.128138202928
 22
4431.163846338046
 13
0.0
 23
0.0
 14
10.0
 24
10.0
 15
10.0
 25
10.0
 16
0.0
 26
0.0
 36
1.0
 17
0.0
 27
0.0
 37
0.0
 40
1427.607598632749
 41
2.434650455927051
 42
50.0
 43
0.0
 44
0.0
 50
0.0
 51
0.0
 71
     0
 72
   100
 73
     1
 74
     1
 75
     0
 76
     0
 77
     0
 78
     0
281
     0
 65
     1
110
0.0
120
0.0
130
0.0
111
1.0
121
0.0
131
0.0
112
0.0
122
1.0
132
0.0
 79
     0
146
0.0
1001
ACAD_NAV_VCDISPLAY
1070
     3
  0
ENDTAB
  0
TABLE
  2
LTYPE
  5
5
330
0
100
AcDbSymbolTable
 70
     2
  0
LTYPE
  5
12
330
5
100
AcDbSymbolTableRecord
100
AcDbLinetypeTableRecord
  2
BYBLOCK
 70
     0
  3

 72
    65
 73
     0
 40
0.0
  0
LTYPE
  5
13
330
5
100
AcDbSymbolTableRecord
100
AcDbLinetypeTableRecord
  2
BYLAYER
 70
     0
  3

 72
    65
 73
     0
 40
0.0
  0
LTYPE
  5
14
330
5
100
AcDbSymbolTableRecord
100
AcDbLinetypeTableRecord
  2
CONTINUOUS
 70
     0
  3
Solid line
 72
    65
 73
     0
 40
0.0
  0
ENDTAB
  0
TABLE
  2
LAYER
  5
2
102
{ACAD_XDICTIONARY
360
4E4
102
}
330
0
100
AcDbSymbolTable
 70
    18
  0
LAYER
  5
E
102
{ACAD_XDICTIONARY
360
DF53
102
}
330
2
100
AcDbSymbolTableRecord
100
AcDbLayerTableRecord
  2
0
 70
     0
 62
     7
  6
CONTINUOUS
370
    -3
390
43E
  0
LAYER
  5
6B
102
{ACAD_XDICTIONARY
360
DF55
102
}
330
2
100
AcDbSymbolTableRecord
100
AcDbLayerTableRecord
  2
WAKU
 70
     0
 62
     4
  6
CONTINUOUS
370
    -3
390
43E
  0
LAYER
  5
75
330
2
100
AcDbSymbolTableRecord
100
AcDbLayerTableRecord
  2
DEFPOINTS
 70
     0
 62
     7
  6
CONTINUOUS
290
     0
370
    -3
390
43E
  0
LAYER
  5
5F7
102
{ACAD_XDICTIONARY
360
DF57
102
}
330
2
100
AcDbSymbolTableRecord
100
AcDbLayerTableRecord
  2
寸法
 70
     0
 62
     8
  6
CONTINUOUS
370
    13
390
43E
1001
AcAecLayerStandard
1000

1000

  0
LAYER
  5
5F8
102
{ACAD_XDICTIONARY
360
5F9
102
}
330
2
100
AcDbSymbolTableRecord
100
AcDbLayerTableRecord
  2
納まり
 70
     0
 62
     7
  6
CONTINUOUS
370
    13
390
43E
  0
LAYER
  5
5FA
102
{ACAD_XDICTIONARY
360
5FB
102
}
330
2
100
AcDbSymbolTableRecord
100
AcDbLayerTableRecord
  2
UFG引出線
 70
     0
 62
   255
  6
CONTINUOUS
370
    13
390
43E
1001
RAK
1000
{ACET-LAYISO
1070
     0
1070
   252
1000
Continuous
1071
        5
1071
        1
1005
43E
1000
ACET-LAYISO}
1000
{1922
1070
     0
1070
     4
1000
Continuous
1071
       -3
1071
        1
1005
43E
1000
1922}
  0
LAYER
  5
5FC
102
{ACAD_XDICTIONARY
360
5FD
102
}
330
2
100
AcDbSymbolTableRecord
100
AcDbLayerTableRecord
  2
納まり文字
 70
     0
 62
   161
  6
CONTINUOUS
370
     5
390
43E
  0
LAYER
  5
5FE
102
{ACAD_XDICTIONARY
360
5FF
102
}
330
2
100
AcDbSymbolTableRecord
100
AcDbLayerTableRecord
  2
UFG納まり文字
 70
     0
 62
   161
  6
CONTINUOUS
370
     5
390
43E
  0
LAYER
  5
600
102
{ACAD_XDICTIONARY
360
601
102
}
330
2
100
AcDbSymbolTableRecord
100
AcDbLayerTableRecord
  2
UFG納まり
 70
     0
 62
     7
  6
CONTINUOUS
370
    13
390
43E
  0
LAYER
  5
602
102
{ACAD_XDICTIONARY
360
603
102
}
330
2
100
AcDbSymbolTableRecord
100
AcDbLayerTableRecord
  2
納まり寸法
 70
     0
 62
     8
  6
CONTINUOUS
370
    -3
390
43E
  0
LAYER
  5
1783
102
{ACAD_XDICTIONARY
360
1784
102
}
330
2
100
AcDbSymbolTableRecord
100
AcDbLayerTableRecord
  2
部品
 70
     0
 62
     7
  6
CONTINUOUS
370
    13
390
43E
  0
LAYER
  5
1785
102
{ACAD_XDICTIONARY
360
DF5F
102
}
330
2
100
AcDbSymbolTableRecord
100
AcDbLayerTableRecord
  2
C-0
 70
     0
 62
     7
  6
CONTINUOUS
370
    -3
390
43E
  0
LAYER
  5
1786
102
{ACAD_XDICTIONARY
360
DF61
102
}
330
2
100
AcDbSymbolTableRecord
100
AcDbLayerTableRecord
  2
BS
 70
     0
 62
     7
  6
CONTINUOUS
370
    -3
390
43E
  0
LAYER
  5
3D51
102
{ACAD_XDICTIONARY
360
DF63
102
}
330
2
100
AcDbSymbolTableRecord
100
AcDbLayerTableRecord
  2
畳
 70
     0
 62
     7
  6
CONTINUOUS
370
    -3
390
43E
  0
LAYER
  5
3E11
102
{ACAD_XDICTIONARY
360
3E12
102
}
330
2
100
AcDbSymbolTableRecord
100
AcDbLayerTableRecord
  2
E-0_通り芯
 70
     0
 62
     7
  6
CONTINUOUS
370
    -3
390
43E
  0
LAYER
  5
3E14
102
{ACAD_XDICTIONARY
360
DF65
102
}
330
2
100
AcDbSymbolTableRecord
100
AcDbLayerTableRecord
  2
0０グルプ-1水色実線
 70
     0
 62
     7
  6
CONTINUOUS
370
    -3
390
43E
  0
LAYER
  5
3E15
102
{ACAD_XDICTIONARY
360
DF67
102
}
330
2
100
AcDbSymbolTableRecord
100
AcDbLayerTableRecord
  2
点検口
 70
     0
 62
     7
  6
CONTINUOUS
370
    -3
390
43E
  0
LAYER
  5
8CA1
102
{ACAD_XDICTIONARY
360
8CA2
102
}
330
2
100
AcDbSymbolTableRecord
100
AcDbLayerTableRecord
  2
UFG01
 70
     0
 62
     7
  6
CONTINUOUS
370
    -3
390
43E
1001
AcAecLayerStandard
1000

1000

  0
ENDTAB
  0
TABLE
  2
STYLE
  5
3
330
0
100
AcDbSymbolTable
 70
     4
  0
STYLE
  5
F
330
3
100
AcDbSymbolTableRecord
100
AcDbTextStyleTableRecord
  2
STANDARD
 70
     0
 40
0.0
 41
0.9
 50
0.0
 71
     0
 42
2.5
  3
MS Gothic.ttf
  4

1001
ACAD
1000
MS Gothic
1071
    32817
  0
STYLE
  5
4E0
330
3
100
AcDbSymbolTableRecord
100
AcDbTextStyleTableRecord
  2
ＭＳ ゴシック
 70
     0
 40
0.0
 41
0.8
 50
0.0
 71
     0
 42
3.5
  3
romans.shx
  4
bigfont.shx
  0
STYLE
  5
606
330
3
100
AcDbSymbolTableRecord
100
AcDbTextStyleTableRecord
  2
HGｺﾞｼｯｸM
 70
     0
 40
0.0
 41
1.0
 50
0.0
 71
     0
 42
0.2
  3
HGGothicM.ttf
  4

1001
ACAD
1000
HGGothicM
1071
    32817
  0
STYLE
  5
8CA4
330
3
100
AcDbSymbolTableRecord
100
AcDbTextStyleTableRecord
  2
GOTIC
 70
     0
 40
0.0
 41
1.0
 50
0.0
 71
     0
 42
300.0
  3
MS PGothic.ttf
  4

1001
ACAD
1000
MS PGothic
1071
    32818
  0
ENDTAB
  0
TABLE
  2
VIEW
  5
6
330
0
100
AcDbSymbolTable
 70
     1
  0
ENDTAB
  0
TABLE
  2
UCS
  5
7
330
0
100
AcDbSymbolTable
 70
     0
  0
ENDTAB
  0
TABLE
  2
APPID
  5
9
330
0
100
AcDbSymbolTable
 70
    18
  0
APPID
  5
10
330
9
100
AcDbSymbolTableRecord
100
AcDbRegAppTableRecord
  2
ACAD
 70
     0
  0
APPID
  5
7A
330
9
100
AcDbSymbolTableRecord
100
AcDbRegAppTableRecord
  2
CONTENTBLOCKICON
 70
     0
  0
APPID
  5
7B
330
9
100
AcDbSymbolTableRecord
100
AcDbRegAppTableRecord
  2
CONTENTBLOCKDESCRIPTION
 70
     0
  0
APPID
  5
7C
330
9
100
AcDbSymbolTableRecord
100
AcDbRegAppTableRecord
  2
CONTENTTABDATA
 70
     0
  0
APPID
  5
7D
330
9
100
AcDbSymbolTableRecord
100
AcDbRegAppTableRecord
  2
CONTENTCURRENTTAB
 70
     0
  0
APPID
  5
7E
330
9
100
AcDbSymbolTableRecord
100
AcDbRegAppTableRecord
  2
ACE-LT__COPYRIGHT_TRIALSOFT-JPN
 70
     0
  0
APPID
  5
228
330
9
100
AcDbSymbolTableRecord
100
AcDbRegAppTableRecord
  2
DRAWINGVARIABLESXDATA
 70
     0
  0
APPID
  5
4E2
330
9
100
AcDbSymbolTableRecord
100
AcDbRegAppTableRecord
  2
ACAD_PSEXT
 70
     0
  0
APPID
  5
4E3
330
9
100
AcDbSymbolTableRecord
100
AcDbRegAppTableRecord
  2
AcAecLayerStandard
 70
     0
  0
APPID
  5
60C
330
9
100
AcDbSymbolTableRecord
100
AcDbRegAppTableRecord
  2
ACAD_DSTYLE_DIMJAG
 70
     0
  0
APPID
  5
60D
330
9
100
AcDbSymbolTableRecord
100
AcDbRegAppTableRecord
  2
ACAD_DSTYLE_DIMTALN
 70
     0
  0
APPID
  5
60E
330
9
100
AcDbSymbolTableRecord
100
AcDbRegAppTableRecord
  2
ACAD_DSTYLE_DIMBREAK
 70
     0
  0
APPID
  5
60F
330
9
100
AcDbSymbolTableRecord
100
AcDbRegAppTableRecord
  2
RAK
 70
     0
  0
APPID
  5
610
330
9
100
AcDbSymbolTableRecord
100
AcDbRegAppTableRecord
  2
ACAD_DSTYLE_DIMJOGGED_JOGANGLE_SYMBOL
 70
     0
  0
APPID
  5
611
330
9
100
AcDbSymbolTableRecord
100
AcDbRegAppTableRecord
  2
ACAD_DSTYLE_DIMEXT_LENGTH
 70
     0
  0
APPID
  5
DF0D
330
9
100
AcDbSymbolTableRecord
100
AcDbRegAppTableRecord
  2
ACAD_NAV_VCDISPLAY
 70
     0
  0
APPID
  5
DF28
330
9
100
AcDbSymbolTableRecord
100
AcDbRegAppTableRecord
  2
ACAD_EXEMPT_FROM_CAD_STANDARDS
 70
     0
  0
APPID
  5
E009
330
9
100
AcDbSymbolTableRecord
100
AcDbRegAppTableRecord
  2
ACAD_MLEADERVER
 70
     0
  0
ENDTAB
  0
TABLE
  2
DIMSTYLE
  5
A
330
0
100
AcDbSymbolTable
 70
     5
100
AcDbDimStyleTable
 71
     4
340
535
340
607
340
609
340
1D
  0
DIMSTYLE
105
1D
330
A
100
AcDbSymbolTableRecord
100
AcDbDimStyleTableRecord
  2
STANDARD
 70
     0
 41
2.5
 42
3.0
 43
10.0
 44
0.0
 73
     0
 74
     0
 77
     1
 78
     8
140
4.0
147
0.9
173
     1
178
     4
275
     1
279
     2
340
F
341
3B
343
3B
344
3B
  0
DIMSTYLE
105
535
330
A
100
AcDbSymbolTableRecord
100
AcDbDimStyleTableRecord
  2
D20
 70
     0
 40
20.0
 41
2.0
 42
1.0
 43
7.0
 44
0.0
 73
     0
 74
     0
 77
     1
 78
    12
 79
     2
140
2.0
141
1.0
147
0.7
172
     1
174
     1
176
   256
177
   256
178
   256
271
     0
272
     0
279
     2
340
4E0
341
3B
342
3B
  0
DIMSTYLE
105
607
102
{ACAD_REACTORS
330
4137
330
3C53
102
}
330
A
100
AcDbSymbolTableRecord
100
AcDbDimStyleTableRecord
  2
納まり
 70
     0
 40
10.0
 41
1.0
 42
1.0
 44
1.0
 73
     0
 74
     0
 77
     1
140
2.5
147
1.0
172
     1
174
     1
271
     0
272
     0
279
     2
340
4E0
341
55C
342
557
1001
ACAD_DSTYLE_DIMBREAK
1070
   391
1040
3.75
1001
ACAD_DSTYLE_DIMJAG
1070
   388
1040
1.5
1001
ACAD_DSTYLE_DIMTALN
1070
   392
1070
     0
  0
DIMSTYLE
105
609
330
A
100
AcDbSymbolTableRecord
100
AcDbDimStyleTableRecord
  2
dim50
 70
     0
 40
50.0
 41
0.5
 42
1.0
 43
6.0
 44
0.0
 73
     0
 74
     0
 77
     1
 78
     8
140
2.5
141
0.0
147
0.5
172
     1
174
     1
271
     0
272
     0
277
     6
279
     1
284
     8
340
4E0
341
557
342
557
1001
ACAD_DSTYLE_DIMBREAK
1070
   391
1040
3.75
1001
ACAD_DSTYLE_DIMJAG
1070
   388
1040
1.5
1001
ACAD_DSTYLE_DIMTALN
1070
   392
1070
     0
1001
ACAD_DSTYLE_DIMEXT_LENGTH
1070
   378
1040
0.0
1001
ACAD_DSTYLE_DIMJOGGED_JOGANGLE_SYMBOL
1070
   384
1040
1.570796326794896
  0
ENDTAB
  0
TABLE
  2
BLOCK_RECORD
  5
1
330
0
100
AcDbSymbolTable
 70
     8
  0
BLOCK_RECORD
  5
18
102
{ACAD_XDICTIONARY
360
477
102
}
330
1
100
AcDbSymbolTableRecord
100
AcDbBlockTableRecord
  2
*MODEL_SPACE
340
441
  0
BLOCK_RECORD
  5
15
102
{ACAD_XDICTIONARY
360
475
102
}
330
1
100
AcDbSymbolTableRecord
100
AcDbBlockTableRecord
  2
*PAPER_SPACE
340
442
  0
BLOCK_RECORD
  5
3B
330
1
100
AcDbSymbolTableRecord
100
AcDbBlockTableRecord
  2
_OPEN
340
0
  0
BLOCK_RECORD
  5
557
330
1
100
AcDbSymbolTableRecord
100
AcDbBlockTableRecord
  2
_Origin
340
0
102
{BLKREFS
331
DF44
331
DF45
331
DF4D
331
DF4E
102
}
  0
BLOCK_RECORD
  5
55C
330
1
100
AcDbSymbolTableRecord
100
AcDbBlockTableRecord
  2
_DotBlank
340
0
  0
BLOCK_RECORD
  5
561
330
1
100
AcDbSymbolTableRecord
100
AcDbBlockTableRecord
  2
出入口
340
0
1001
ACAD
1000
DesignCenter Data
1002
{
1070
     1
1070
     4
1002
}
  0
BLOCK_RECORD
  5
3CC8
330
1
100
AcDbSymbolTableRecord
100
AcDbBlockTableRecord
  2
*D4
340
0
  0
BLOCK_RECORD
  5
424D
330
1
100
AcDbSymbolTableRecord
100
AcDbBlockTableRecord
  2
*D5
340
0
  0
ENDTAB
  0
ENDSEC
  0
SECTION
  2
BLOCKS
  0
BLOCK
  5
19
330
18
100
AcDbEntity
  8
0
100
AcDbBlockBegin
  2
*MODEL_SPACE
 70
     0
 10
0.0
 20
0.0
 30
0.0
  3
*MODEL_SPACE
  1

  0
ENDBLK
  5
1A
330
18
100
AcDbEntity
  8
0
100
AcDbBlockEnd
  0
BLOCK
  5
16
330
15
100
AcDbEntity
 67
     1
  8
0
100
AcDbBlockBegin
  2
*PAPER_SPACE
 70
     0
 10
0.0
 20
0.0
 30
0.0
  3
*PAPER_SPACE
  1

  0
ENDBLK
  5
17
330
15
100
AcDbEntity
 67
     1
  8
0
100
AcDbBlockEnd
  0
BLOCK
  5
3F
330
3B
100
AcDbEntity
  8
0
100
AcDbBlockBegin
  2
_OPEN
 70
     0
 10
0.0
 20
0.0
 30
0.0
  3
_OPEN
  1

  0
LINE
  5
3C
330
3B
100
AcDbEntity
  8
0
  6
ByBlock
 62
     0
100
AcDbLine
 10
-1.0
 20
0.1666666666666666
 30
0.0
 11
0.0
 21
0.0
 31
0.0
  0
LINE
  5
3D
330
3B
100
AcDbEntity
  8
0
  6
ByBlock
 62
     0
100
AcDbLine
 10
0.0
 20
0.0
 30
0.0
 11
-1.0
 21
-0.1666666666666666
 31
0.0
  0
LINE
  5
3E
330
3B
100
AcDbEntity
  8
0
  6
ByBlock
 62
     0
100
AcDbLine
 10
0.0
 20
0.0
 30
0.0
 11
-1.0
 21
0.0
 31
0.0
  0
ENDBLK
  5
40
330
3B
100
AcDbEntity
  8
0
100
AcDbBlockEnd
  0
BLOCK
  5
558
330
557
100
AcDbEntity
  8
0
100
AcDbBlockBegin
  2
_Origin
 70
     0
 10
0.0
 20
0.0
 30
0.0
  3
_Origin
  1

  0
CIRCLE
  5
559
330
557
100
AcDbEntity
  8
0
  6
ByBlock
 62
     0
370
    -2
100
AcDbCircle
 10
0.0
 20
0.0
 30
0.0
 40
0.5
  0
LINE
  5
55A
330
557
100
AcDbEntity
  8
0
  6
ByBlock
 62
     0
370
    -2
100
AcDbLine
 10
0.0
 20
0.0
 30
0.0
 11
-1.0
 21
0.0
 31
0.0
  0
ENDBLK
  5
55B
330
557
100
AcDbEntity
  8
0
100
AcDbBlockEnd
  0
BLOCK
  5
55D
330
55C
100
AcDbEntity
  8
0
100
AcDbBlockBegin
  2
_DotBlank
 70
     0
 10
0.0
 20
0.0
 30
0.0
  3
_DotBlank
  1

  0
CIRCLE
  5
55E
330
55C
100
AcDbEntity
  8
0
  6
ByBlock
 62
     0
370
    -2
100
AcDbCircle
 10
0.0
 20
0.0
 30
0.0
 40
0.5
  0
LINE
  5
55F
330
55C
100
AcDbEntity
  8
0
  6
ByBlock
 62
     0
370
    -2
100
AcDbLine
 10
-0.5
 20
0.0
 30
0.0
 11
-1.0
 21
0.0
 31
0.0
  0
ENDBLK
  5
560
330
55C
100
AcDbEntity
  8
0
100
AcDbBlockEnd
  0
BLOCK
  5
562
330
561
100
AcDbEntity
  8
0
100
AcDbBlockBegin
  2
出入口
 70
     0
 10
0.0
 20
0.0
 30
0.0
  3
出入口
  1

  0
LINE
  5
563
330
561
100
AcDbEntity
  8
0
100
AcDbLine
 10
-3.0
 20
0.9999999999995452
 30
0.0
 11
-79.99999999999977
 21
1.0
 31
0.0
  0
LINE
  5
564
330
561
100
AcDbEntity
  8
0
100
AcDbLine
 10
-2.0
 20
3.0
 30
0.0
 11
-79.99999999999977
 21
3.0
 31
0.0
  0
LINE
  5
565
330
561
100
AcDbEntity
  8
0
100
AcDbLine
 10
-2.0
 20
-35.0
 30
0.0
 11
-2.0
 21
-0.0000000000004547
 31
0.0
  0
LINE
  5
566
330
561
100
AcDbEntity
  8
0
100
AcDbLine
 10
-1.999999999999772
 20
-35.0
 30
0.0
 11
-40.0
 21
-35.0
 31
0.0
  0
LINE
  5
567
330
561
100
AcDbEntity
  8
0
100
AcDbLine
 10
0.0000000000002274
 20
-37.0
 30
0.0
 11
-40.0
 21
-37.0
 31
0.0
  0
LINE
  5
568
330
561
100
AcDbEntity
  8
0
100
AcDbLine
 10
-40.0
 20
-37.0
 30
0.0
 11
-39.99999999999977
 21
-35.0
 31
0.0
  0
ARC
  5
569
330
561
100
AcDbEntity
  8
0
100
AcDbCircle
 10
-3.0
 20
-0.0000000000004547
 30
0.0
 40
1.0
100
AcDbArc
 50
0.0
 51
90.0
  0
ARC
  5
56A
330
561
100
AcDbEntity
  8
0
100
AcDbCircle
 10
-2.0
 20
1.0
 30
0.0
 40
2.0
100
AcDbArc
 50
0.0
 51
90.0
  0
LINE
  5
56B
330
561
100
AcDbEntity
  8
0
100
AcDbLine
 10
0.0
 20
-37.0
 30
0.0
 11
0.0
 21
1.0
 31
0.0
  0
ENDBLK
  5
56C
330
561
100
AcDbEntity
  8
0
100
AcDbBlockEnd
  0
BLOCK
  5
3CD2
330
3CC8
100
AcDbEntity
  8
0
100
AcDbBlockBegin
  2
*D4
 70
     1
 10
0.0
 20
0.0
 30
0.0
  3
*D4
  1

  0
LINE
  5
DF41
330
3CC8
100
AcDbEntity
  8
納まり
 62
     0
370
    -2
100
AcDbLine
 10
4629.945218057947
 20
4379.075877210246
 30
0.0
 11
4756.16715171034
 21
4379.075877210246
 31
0.0
  0
LINE
  5
DF42
330
3CC8
100
AcDbEntity
  8
納まり
 62
     0
370
    -2
100
AcDbLine
 10
4629.945218057978
 20
4012.07487721014
 30
0.0
 11
4756.16715171034
 21
4012.07487721014
 31
0.0
  0
LINE
  5
DF43
330
3CC8
100
AcDbEntity
  8
納まり
 62
     0
370
    -2
100
AcDbLine
 10
4746.16715171034
 20
4369.075877210245
 30
0.0
 11
4746.16715171034
 21
4022.07487721014
 31
0.0
  0
INSERT
  5
DF44
330
3CC8
100
AcDbEntity
  8
納まり
 62
     0
370
    -2
100
AcDbBlockReference
  2
_Origin
 10
4746.16715171034
 20
4379.075877210246
 30
0.0
 41
10.0
 42
10.0
 43
10.0
 50
90.0
  0
INSERT
  5
DF45
330
3CC8
100
AcDbEntity
  8
納まり
 62
     0
370
    -2
100
AcDbBlockReference
  2
_Origin
 10
4746.16715171034
 20
4012.07487721014
 30
0.0
 41
10.0
 42
10.0
 43
10.0
 50
270.0
  0
MTEXT
  5
DF46
330
3CC8
100
AcDbEntity
  8
納まり
 62
     0
100
AcDbMText
 10
4723.66715171034
 20
4195.57537721019
 30
0.0
 40
25.0
 41
0.0
 71
     5
 72
     1
  1
\A1;{\fArial|b0|i0|c0|p32;h}
  7
ＭＳ ゴシック
 11
0.0000000000000001
 21
1.0
 31
0.0
 73
     1
 44
1.0
1001
ACAD
1000
MTEXTBEGIN
1070
    73
1070
     1
1070
    44
1040
1.0
1070
    74
1070
     0
1000
MTEXTEND
  0
POINT
  5
DF47
330
3CC8
100
AcDbEntity
  8
DEFPOINTS
 62
     0
100
AcDbPoint
 10
4619.945218057948
 20
4379.075877210246
 30
0.0
  0
POINT
  5
DF48
330
3CC8
100
AcDbEntity
  8
DEFPOINTS
 62
     0
100
AcDbPoint
 10
4619.945218057977
 20
4012.07487721014
 30
0.0
  0
POINT
  5
DF49
330
3CC8
100
AcDbEntity
  8
DEFPOINTS
 62
     0
100
AcDbPoint
 10
4746.16715171034
 20
4012.07487721014
 30
0.0
  0
ENDBLK
  5
3CD3
330
3CC8
100
AcDbEntity
  8
0
100
AcDbBlockEnd
  0
BLOCK
  5
4257
330
424D
100
AcDbEntity
  8
0
100
AcDbBlockBegin
  2
*D5
 70
     1
 10
0.0
 20
0.0
 30
0.0
  3
*D5
  1

  0
LINE
  5
DF4A
330
424D
100
AcDbEntity
  8
納まり
 62
     0
370
    -2
100
AcDbLine
 10
3236.264701429162
 20
4404.075877210243
 30
0.0
 11
3236.264701429162
 21
4657.796349684833
 31
0.0
  0
LINE
  5
DF4B
330
424D
100
AcDbEntity
  8
納まり
 62
     0
370
    -2
100
AcDbLine
 10
3836.264701428812
 20
4404.075877210243
 30
0.0
 11
3836.264701428812
 21
4657.796349684833
 31
0.0
  0
LINE
  5
DF4C
330
424D
100
AcDbEntity
  8
納まり
 62
     0
370
    -2
100
AcDbLine
 10
3246.264701429162
 20
4647.796349684833
 30
0.0
 11
3826.264701428812
 21
4647.796349684833
 31
0.0
  0
INSERT
  5
DF4D
330
424D
100
AcDbEntity
  8
納まり
 62
     0
370
    -2
100
AcDbBlockReference
  2
_Origin
 10
3236.264701429162
 20
4647.796349684833
 30
0.0
 41
10.0
 42
10.0
 43
10.0
 50
180.0
  0
INSERT
  5
DF4E
330
424D
100
AcDbEntity
  8
納まり
 62
     0
370
    -2
100
AcDbBlockReference
  2
_Origin
 10
3836.264701428812
 20
4647.796349684833
 30
0.0
 41
10.0
 42
10.0
 43
10.0
  0
MTEXT
  5
DF4F
330
424D
100
AcDbEntity
  8
納まり
 62
     0
100
AcDbMText
 10
3536.264701428987
 20
4670.296349684833
 30
0.0
 40
25.0
 41
0.0
 71
     5
 72
     1
  1
\A1;600
  7
ＭＳ ゴシック
 73
     1
 44
1.0
1001
ACAD
1000
MTEXTBEGIN
1070
    73
1070
     1
1070
    44
1040
1.0
1070
    74
1070
     0
1000
MTEXTEND
  0
POINT
  5
DF50
330
424D
100
AcDbEntity
  8
DEFPOINTS
 62
     0
100
AcDbPoint
 10
3236.264701429162
 20
4394.075877210243
 30
0.0
  0
POINT
  5
DF51
330
424D
100
AcDbEntity
  8
DEFPOINTS
 62
     0
100
AcDbPoint
 10
3836.264701428812
 20
4394.075877210243
 30
0.0
  0
POINT
  5
DF52
330
424D
100
AcDbEntity
  8
DEFPOINTS
 62
     0
100
AcDbPoint
 10
3836.264701428812
 20
4647.796349684833
 30
0.0
  0
ENDBLK
  5
4258
330
424D
100
AcDbEntity
  8
0
100
AcDbBlockEnd
  0
ENDSEC
  0
SECTION
  2
ENTITIES
  0
LINE
  5
3A74
330
18
100
AcDbEntity
  8
WAKU
100
AcDbLine
 10
4884.985198394827
 20
5167.665609795282
 30
0.0
 11
4884.985198394827
 21
3667.665609795282
 31
0.0
  0
TEXT
  5
3A7A
330
18
100
AcDbEntity
  8
納まり文字
100
AcDbText
 10
3011.804915440535
 20
5043.118027926285
 30
0.0
 40
50.0
  1
G450点検口廻り詳細
  7
ＭＳ ゴシック
100
AcDbText
  0
LINE
  5
3BFC
330
18
100
AcDbEntity
  8
納まり
100
AcDbLine
 10
4619.945218057946
 20
4012.075877210272
 30
0.0
 11
3015.427892343076
 21
4012.075877210331
 31
0.0
  0
LINE
  5
3C1A
330
18
100
AcDbEntity
  8
納まり
100
AcDbLine
 10
3257.083831002382
 20
4012.075877210352
 30
0.0
 11
3287.083831002382
 21
3982.075877210353
 31
0.0
  0
LINE
  5
3C1B
330
18
100
AcDbEntity
  8
納まり
100
AcDbLine
 10
3252.083831002382
 20
4012.075877210352
 30
0.0
 11
3282.083831002382
 21
3982.075877210353
 31
0.0
  0
LINE
  5
3C1C
330
18
100
AcDbEntity
  8
納まり
100
AcDbLine
 10
3247.083831002382
 20
4012.075877210352
 30
0.0
 11
3277.083831002382
 21
3982.075877210353
 31
0.0
  0
LINE
  5
3C1D
330
18
100
AcDbEntity
  8
納まり
100
AcDbLine
 10
3557.083831002394
 20
4012.075877210341
 30
0.0
 11
3587.083831002394
 21
3982.075877210342
 31
0.0
  0
LINE
  5
3C1E
330
18
100
AcDbEntity
  8
納まり
100
AcDbLine
 10
3547.083831002394
 20
4012.075877210341
 30
0.0
 11
3577.083831002394
 21
3982.075877210342
 31
0.0
  0
LINE
  5
3C1F
330
18
100
AcDbEntity
  8
納まり
100
AcDbLine
 10
3552.083831002394
 20
4012.075877210341
 30
0.0
 11
3582.083831002394
 21
3982.075877210342
 31
0.0
  0
LINE
  5
3C2B
330
18
100
AcDbEntity
  8
納まり
100
AcDbLine
 10
3852.083831002405
 20
4012.075877210331
 30
0.0
 11
3882.083831002404
 21
3982.075877210331
 31
0.0
  0
LINE
  5
3C2C
330
18
100
AcDbEntity
  8
納まり
100
AcDbLine
 10
3847.083831002405
 20
4012.075877210331
 30
0.0
 11
3877.083831002405
 21
3982.075877210331
 31
0.0
  0
LINE
  5
3C2D
330
18
100
AcDbEntity
  8
納まり
100
AcDbLine
 10
3857.083831002404
 20
4012.075877210331
 30
0.0
 11
3887.083831002405
 21
3982.075877210331
 31
0.0
  0
LINE
  5
3C47
330
18
100
AcDbEntity
  8
納まり
100
AcDbLine
 10
4147.083831002404
 20
4012.075877210331
 30
0.0
 11
4177.083831002405
 21
3982.075877210331
 31
0.0
  0
LINE
  5
3C48
330
18
100
AcDbEntity
  8
納まり
100
AcDbLine
 10
4152.083831002404
 20
4012.075877210331
 30
0.0
 11
4182.083831002404
 21
3982.075877210331
 31
0.0
  0
LINE
  5
3C49
330
18
100
AcDbEntity
  8
納まり
100
AcDbLine
 10
4157.083831002404
 20
4012.075877210331
 30
0.0
 11
4187.083831002404
 21
3982.075877210331
 31
0.0
  0
LINE
  5
3C4C
330
18
100
AcDbEntity
  8
納まり
100
AcDbLine
 10
4457.083831002404
 20
4012.075877210331
 30
0.0
 11
4487.083831002404
 21
3982.075877210331
 31
0.0
  0
LINE
  5
3C4D
330
18
100
AcDbEntity
  8
納まり
100
AcDbLine
 10
4452.083831002404
 20
4012.075877210331
 30
0.0
 11
4482.083831002404
 21
3982.075877210331
 31
0.0
  0
LINE
  5
3C4E
330
18
100
AcDbEntity
  8
納まり
100
AcDbLine
 10
4447.083831002404
 20
4012.075877210331
 30
0.0
 11
4477.083831002405
 21
3982.075877210331
 31
0.0
  0
DIMENSION
  5
3C53
330
18
100
AcDbEntity
  8
納まり
100
AcDbDimension
  2
*D4
 10
4746.16715171034
 20
4012.07487721014
 30
0.0
 11
4723.66715171034
 21
4195.57537721019
 31
0.0
 70
    32
  1
{\fArial|b0|i0|c0|p32;h}
 71
     5
 42
367.0010000001057
  3
納まり
100
AcDbAlignedDimension
 13
4619.945218057945
 23
4379.075877210243
 33
0.0
 14
4619.945218057975
 24
4012.074877210138
 34
0.0
 50
90.0
100
AcDbRotatedDimension
  0
LWPOLYLINE
  5
40FE
330
18
100
AcDbEntity
  8
E-0_通り芯
 62
   254
370
     9
100
AcDbPolyline
 90
        6
 70
     1
 43
0.0
 10
3243.264701429154
 20
4074.075877210323
 10
3243.264701429154
 20
4064.075877210323
 10
3245.264701429154
 20
4061.075877210323
 10
3227.264701429155
 20
4061.075877210323
 10
3229.264701429155
 20
4064.075877210323
 10
3229.264701429155
 20
4074.075877210323
  0
LWPOLYLINE
  5
40FF
330
18
100
AcDbEntity
  8
E-0_通り芯
 62
   254
370
     9
100
AcDbPolyline
 90
        3
 70
     0
 43
0.0
 10
3246.764701429154
 20
4049.075877210323
 10
3246.764701429154
 20
4051.075877210323
 10
3225.864701429153
 20
4051.075877210323
  0
LWPOLYLINE
  5
4100
330
18
100
AcDbEntity
  8
E-0_通り芯
 62
   254
370
     9
100
AcDbPolyline
 90
        2
 70
     0
 43
0.0
 10
3214.264701429154
 20
4015.075877210324
 10
3258.264701429155
 20
4015.075877210324
  0
LWPOLYLINE
  5
4101
330
18
100
AcDbEntity
  8
E-0_通り芯
 62
   254
370
     9
100
AcDbPolyline
 90
        2
 70
     0
 43
0.0
 10
3214.264701429154
 20
4024.075877210323
 10
3258.264701429155
 20
4024.075877210323
  0
LWPOLYLINE
  5
4102
330
18
100
AcDbEntity
  8
E-0_通り芯
 62
   254
370
     9
100
AcDbPolyline
 90
        2
 70
     0
 43
0.0
 10
3220.264701429154
 20
4029.075877210323
 10
3252.264701429155
 20
4029.075877210323
  0
LWPOLYLINE
  5
4103
330
18
100
AcDbEntity
  8
E-0_通り芯
 62
   254
370
     9
100
AcDbPolyline
 90
        2
 70
     0
 43
0.0
 10
3258.264701429155
 20
4033.075877210324
 10
3214.264701429154
 20
4033.075877210324
  0
LWPOLYLINE
  5
4104
330
18
100
AcDbEntity
  8
E-0_通り芯
 62
   254
370
     9
100
AcDbPolyline
 90
        2
 70
     0
 43
0.0
 10
3214.264701429154
 20
4042.075877210323
 10
3258.264701429155
 20
4042.075877210323
  0
LWPOLYLINE
  5
4105
330
18
100
AcDbEntity
  8
E-0_通り芯
 62
   254
370
     9
100
AcDbPolyline
 90
        6
 70
     1
 43
0.0
 10
3236.264701429154
 20
4049.075877210323
 10
3254.264701429155
 20
4049.075877210323
 10
3254.264701429155
 20
4047.075877210324
 10
3218.264701429154
 20
4047.075877210324
 10
3218.264701429154
 20
4047.075877210324
 10
3218.264701429154
 20
4049.075877210323
  0
LWPOLYLINE
  5
4106
330
18
100
AcDbEntity
  8
E-0_通り芯
 62
   254
370
     9
100
AcDbPolyline
 90
        2
 70
     0
 43
0.0
 10
3227.264701429155
 20
4051.075877210323
 10
3227.264701429155
 20
4061.075877210323
  0
LWPOLYLINE
  5
4107
330
18
100
AcDbEntity
  8
E-0_通り芯
 62
   254
370
     9
100
AcDbPolyline
 90
        2
 70
     0
 43
0.0
 10
3225.764701429155
 20
4049.075877210323
 10
3225.764701429155
 20
4051.075877210323
  0
LWPOLYLINE
  5
4108
330
18
100
AcDbEntity
  8
E-0_通り芯
 62
   254
370
     9
100
AcDbPolyline
 90
       14
 70
     0
 43
0.0
 10
3252.264701429155
 20
4047.075877210324
 10
3258.264701429155
 20
4042.075877210323
 10
3258.264701429155
 20
4033.075877210324
 10
3252.264701429155
 20
4029.075877210323
 10
3258.264701429155
 20
4024.075877210323
 10
3258.264701429155
 20
4015.075877210324
 10
3261.264701429154
 20
4012.075877210324
 10
3211.264701429154
 20
4012.075877210324
 10
3214.264701429154
 20
4015.075877210324
 10
3214.264701429154
 20
4024.075877210323
 10
3220.264701429154
 20
4029.075877210323
 10
3214.264701429154
 20
4033.075877210324
 10
3214.264701429154
 20
4042.075877210323
 10
3220.264701429154
 20
4047.075877210324
  0
LWPOLYLINE
  5
4109
330
18
100
AcDbEntity
  8
E-0_通り芯
 62
   254
370
     9
100
AcDbPolyline
 90
        3
 70
     0
 43
0.0
 10
3236.264701429154
 20
4051.075877210323
 10
3245.264701429154
 20
4051.075877210323
 10
3245.264701429154
 20
4061.075877210323
  0
LWPOLYLINE
  5
410A
330
18
100
AcDbEntity
  8
E-0_通り芯
 62
   254
370
     9
100
AcDbPolyline
 90
        2
 70
     0
 43
0.0
 10
3243.264701429154
 20
4064.075877210323
 10
3229.264701429155
 20
4064.075877210323
  0
CIRCLE
  5
410B
330
18
100
AcDbEntity
  8
納まり文字
 62
     7
100
AcDbCircle
 10
3835.949328244188
 20
4019.684813845329
 30
0.0
 40
3.0
  0
LWPOLYLINE
  5
410C
330
18
100
AcDbEntity
  8
E-0_通り芯
 62
   254
370
     9
100
AcDbPolyline
 90
        6
 70
     1
 43
0.0
 10
3843.264701428812
 20
4074.075877210323
 10
3843.264701428812
 20
4064.075877210323
 10
3845.264701428813
 20
4061.075877210323
 10
3827.264701428813
 20
4061.075877210323
 10
3829.264701428812
 20
4064.075877210323
 10
3829.264701428812
 20
4074.075877210323
  0
LWPOLYLINE
  5
410D
330
18
100
AcDbEntity
  8
E-0_通り芯
 62
   254
370
     9
100
AcDbPolyline
 90
        3
 70
     0
 43
0.0
 10
3846.764701428813
 20
4049.075877210323
 10
3846.764701428813
 20
4051.075877210323
 10
3825.864701428811
 20
4051.075877210323
  0
LWPOLYLINE
  5
410E
330
18
100
AcDbEntity
  8
E-0_通り芯
 62
   254
370
     9
100
AcDbPolyline
 90
        2
 70
     0
 43
0.0
 10
3814.264701428812
 20
4015.075877210324
 10
3858.264701428812
 20
4015.075877210324
  0
LWPOLYLINE
  5
410F
330
18
100
AcDbEntity
  8
E-0_通り芯
 62
   254
370
     9
100
AcDbPolyline
 90
        2
 70
     0
 43
0.0
 10
3814.264701428812
 20
4024.075877210323
 10
3858.264701428812
 20
4024.075877210323
  0
LWPOLYLINE
  5
4110
330
18
100
AcDbEntity
  8
E-0_通り芯
 62
   254
370
     9
100
AcDbPolyline
 90
        2
 70
     0
 43
0.0
 10
3820.264701428813
 20
4029.075877210323
 10
3852.264701428813
 20
4029.075877210323
  0
LWPOLYLINE
  5
4111
330
18
100
AcDbEntity
  8
E-0_通り芯
 62
   254
370
     9
100
AcDbPolyline
 90
        2
 70
     0
 43
0.0
 10
3858.264701428812
 20
4033.075877210324
 10
3814.264701428812
 20
4033.075877210324
  0
LWPOLYLINE
  5
4112
330
18
100
AcDbEntity
  8
E-0_通り芯
 62
   254
370
     9
100
AcDbPolyline
 90
        2
 70
     0
 43
0.0
 10
3814.264701428812
 20
4042.075877210323
 10
3858.264701428812
 20
4042.075877210323
  0
LWPOLYLINE
  5
4113
330
18
100
AcDbEntity
  8
E-0_通り芯
 62
   254
370
     9
100
AcDbPolyline
 90
        6
 70
     1
 43
0.0
 10
3836.264701428812
 20
4049.075877210323
 10
3854.264701428812
 20
4049.075877210323
 10
3854.264701428812
 20
4047.075877210324
 10
3818.264701428812
 20
4047.075877210324
 10
3818.264701428812
 20
4047.075877210324
 10
3818.264701428812
 20
4049.075877210323
  0
LWPOLYLINE
  5
4114
330
18
100
AcDbEntity
  8
E-0_通り芯
 62
   254
370
     9
100
AcDbPolyline
 90
        2
 70
     0
 43
0.0
 10
3827.264701428813
 20
4051.075877210323
 10
3827.264701428813
 20
4061.075877210323
  0
LWPOLYLINE
  5
4115
330
18
100
AcDbEntity
  8
E-0_通り芯
 62
   254
370
     9
100
AcDbPolyline
 90
        2
 70
     0
 43
0.0
 10
3825.764701428813
 20
4049.075877210323
 10
3825.764701428813
 20
4051.075877210323
  0
LWPOLYLINE
  5
4116
330
18
100
AcDbEntity
  8
E-0_通り芯
 62
   254
370
     9
100
AcDbPolyline
 90
       14
 70
     0
 43
0.0
 10
3852.264701428813
 20
4047.075877210324
 10
3858.264701428812
 20
4042.075877210323
 10
3858.264701428812
 20
4033.075877210324
 10
3852.264701428813
 20
4029.075877210323
 10
3858.264701428812
 20
4024.075877210323
 10
3858.264701428812
 20
4015.075877210324
 10
3861.264701428812
 20
4012.075877210324
 10
3811.264701428812
 20
4012.075877210324
 10
3814.264701428812
 20
4015.075877210324
 10
3814.264701428812
 20
4024.075877210323
 10
3820.264701428813
 20
4029.075877210323
 10
3814.264701428812
 20
4033.075877210324
 10
3814.264701428812
 20
4042.075877210323
 10
3820.264701428813
 20
4047.075877210324
  0
LWPOLYLINE
  5
4117
330
18
100
AcDbEntity
  8
E-0_通り芯
 62
   254
370
     9
100
AcDbPolyline
 90
        3
 70
     0
 43
0.0
 10
3836.264701428812
 20
4051.075877210323
 10
3845.264701428813
 20
4051.075877210323
 10
3845.264701428813
 20
4061.075877210323
  0
LWPOLYLINE
  5
4118
330
18
100
AcDbEntity
  8
E-0_通り芯
 62
   254
370
     9
100
AcDbPolyline
 90
        2
 70
     0
 43
0.0
 10
3843.264701428812
 20
4064.075877210323
 10
3829.264701428812
 20
4064.075877210323
  0
TEXT
  5
4119
330
18
100
AcDbEntity
  8
納まり文字
100
AcDbText
 10
3925.67380413639
 20
3901.238987144675
 30
0.0
 40
30.0
  1
クッションゴム
  7
ＭＳ ゴシック
 11
3925.67380413639
 21
3916.238987144674
 31
0.0
100
AcDbText
 73
     2
  0
LINE
  5
411A
330
18
100
AcDbEntity
  8
納まり文字
 62
     7
100
AcDbLine
 10
3835.949328244188
 20
4019.684813845329
 30
0.0
 11
3895.67380413639
 21
3916.238987144616
 31
0.0
  0
LINE
  5
411B
330
18
100
AcDbEntity
  8
納まり文字
 62
     7
100
AcDbLine
 10
3925.67380413639
 20
3916.238987144674
 30
0.0
 11
3895.67380413639
 21
3916.238987144674
 31
0.0
  0
TEXT
  5
411C
330
18
100
AcDbEntity
  8
納まり文字
100
AcDbText
 10
3896.698513854677
 20
4099.616194116993
 30
0.0
 40
30.0
  1
支持ボルト
  7
ＭＳ ゴシック
 11
3896.698513854677
 21
4114.616194116994
 31
0.0
100
AcDbText
 73
     2
  0
LINE
  5
411D
330
18
100
AcDbEntity
  8
0０グルプ-1水色実線
  6
Continuous
 62
     7
100
AcDbLine
 10
3230.264701429162
 20
4074.075877210323
 30
0.0
 11
3230.264701429176
 21
4332.075877210243
 31
0.0
  0
LINE
  5
411E
330
18
100
AcDbEntity
  8
0０グルプ-1水色実線
  6
Continuous
 62
     7
100
AcDbLine
 10
3242.264701429154
 20
4074.075877210323
 30
0.0
 11
3242.264701429154
 21
4332.075877210243
 31
0.0
  0
LINE
  5
411F
330
18
100
AcDbEntity
  8
0０グルプ-1水色実線
  6
Continuous
 62
     7
100
AcDbLine
 10
3830.264701428813
 20
4074.075877210323
 30
0.0
 11
3830.264701428827
 21
4332.075877210243
 31
0.0
  0
LINE
  5
4120
330
18
100
AcDbEntity
  8
0０グルプ-1水色実線
  6
Continuous
 62
     7
100
AcDbLine
 10
3842.264701428812
 20
4074.075877210323
 30
0.0
 11
3842.264701428812
 21
4332.075877210243
 31
0.0
  0
LINE
  5
4121
330
18
100
AcDbEntity
  8
畳
100
AcDbLine
 10
4619.945218057945
 20
4454.075877210243
 30
0.0
 11
3055.431505161447
 21
4454.075877210243
 31
0.0
  0
ARC
  5
4122
330
18
100
AcDbEntity
  8
畳
  6
Continuous
100
AcDbCircle
 10
3190.374282327725
 20
4413.656921355434
 30
0.0
 40
19.63636339484871
100
AcDbArc
 50
179.9479980449586
 51
0.0510559084252
  0
POLYLINE
  5
4123
330
18
100
AcDbEntity
  8
0０グルプ-1水色実線
  6
Continuous
 62
     7
100
AcDb2dPolyline
 66
     1
 10
0.0
 20
0.0
 30
0.0
  0
VERTEX
  5
4124
330
4123
100
AcDbEntity
  8
0０グルプ-1水色実線
  6
Continuous
 62
     7
100
AcDbVertex
100
AcDb2dVertex
 10
3271.264701429162
 20
4336.075877210244
 30
0.0
  0
VERTEX
  5
4125
330
4123
100
AcDbEntity
  8
0０グルプ-1水色実線
  6
Continuous
 62
     7
100
AcDbVertex
100
AcDb2dVertex
 10
3271.264701429162
 20
4334.075877210244
 30
0.0
  0
VERTEX
  5
4126
330
4123
100
AcDbEntity
  8
0０グルプ-1水色実線
  6
Continuous
 62
     7
100
AcDbVertex
100
AcDb2dVertex
 10
3201.264701429162
 20
4334.075877210244
 30
0.0
  0
VERTEX
  5
4127
330
4123
100
AcDbEntity
  8
0０グルプ-1水色実線
  6
Continuous
 62
     7
100
AcDbVertex
100
AcDb2dVertex
 10
3201.264701429162
 20
4336.075877210244
 30
0.0
  0
VERTEX
  5
4128
330
4123
100
AcDbEntity
  8
0０グルプ-1水色実線
  6
Continuous
 62
     7
100
AcDbVertex
100
AcDb2dVertex
 10
3271.264701429162
 20
4336.075877210244
 30
0.0
  0
SEQEND
  5
4129
330
4123
100
AcDbEntity
  8
0０グルプ-1水色実線
  0
LINE
  5
412A
330
18
100
AcDbEntity
  8
点検口
  6
Continuous
 62
     7
100
AcDbLine
 10
3286.264701429154
 20
4359.075877210243
 30
0.0
 11
3186.264701429161
 21
4359.075877210243
 31
0.0
  0
LINE
  5
412B
330
18
100
AcDbEntity
  8
点検口
  6
Continuous
 62
     7
100
AcDbLine
 10
3286.264701429154
 20
4336.075877210244
 30
0.0
 11
3186.264701429161
 21
4336.075877210244
 31
0.0
  0
LINE
  5
412C
330
18
100
AcDbEntity
  8
納まり
100
AcDbLine
 10
3236.264701429162
 20
4391.075877210243
 30
0.0
 11
3055.431505161447
 21
4391.075877210243
 31
0.0
  0
LINE
  5
412D
330
18
100
AcDbEntity
  8
納まり
100
AcDbLine
 10
3236.264701429162
 20
4387.075877210243
 30
0.0
 11
3055.431505161447
 21
4387.075877210242
 31
0.0
  0
LINE
  5
412E
330
18
100
AcDbEntity
  8
納まり
100
AcDbLine
 10
3236.264701429162
 20
4383.075877210243
 30
0.0
 11
3055.431505161447
 21
4383.075877210243
 31
0.0
  0
LINE
  5
412F
330
18
100
AcDbEntity
  8
納まり
100
AcDbLine
 10
3236.264701429162
 20
4379.075877210243
 30
0.0
 11
3055.431505161447
 21
4379.075877210243
 31
0.0
  0
LINE
  5
4130
330
18
100
AcDbEntity
  8
納まり
100
AcDbLine
 10
3236.264701429162
 20
4359.075877210243
 30
0.0
 11
3055.431505161447
 21
4359.075877210243
 31
0.0
  0
LINE
  5
4131
330
18
100
AcDbEntity
  8
納まり
100
AcDbLine
 10
3236.264701429162
 20
4394.075877210243
 30
0.0
 11
3055.431505161447
 21
4394.075877210243
 31
0.0
  0
LINE
  5
4132
330
18
100
AcDbEntity
  8
点検口
  6
Continuous
 62
     7
100
AcDbLine
 10
3186.264701429161
 20
4359.075877210243
 30
0.0
 11
3186.264701429161
 21
4336.075877210244
 31
0.0
  0
LINE
  5
4133
330
18
100
AcDbEntity
  8
畳
  6
Continuous
100
AcDbLine
 10
3170.738043503803
 20
4436.35869599815
 30
0.0
 11
3170.738043503803
 21
4413.667731583542
 31
0.0
  0
TEXT
  5
4134
330
18
100
AcDbEntity
  8
納まり文字
100
AcDbText
 10
3736.138686794872
 20
4732.134609375115
 30
0.0
 40
30.0
  1
フロア点検口 600×600
  7
ＭＳ ゴシック
 11
3736.138686794872
 21
4747.134609375114
 31
0.0
100
AcDbText
 73
     2
  0
TEXT
  5
4135
330
18
100
AcDbEntity
  8
納まり文字
100
AcDbText
 10
3896.66856078753
 20
4238.336791679825
 30
0.0
 40
30.0
  1
パネル受金具
  7
ＭＳ ゴシック
 11
3896.66856078753
 21
4253.336791679825
 31
0.0
100
AcDbText
 73
     2
  0
LINE
  5
4136
330
18
100
AcDbEntity
  8
納まり文字
 62
     7
100
AcDbLine
 10
3528.659087906901
 20
4385.541276371363
 30
0.0
 11
3688.894593794739
 21
4747.134609375114
 31
0.0
  0
DIMENSION
  5
4137
330
18
100
AcDbEntity
  8
納まり
100
AcDbDimension
  2
*D5
 10
3836.264701428812
 20
4647.796349684833
 30
0.0
 11
3536.264701428987
 21
4670.296349684833
 31
0.0
 70
    32
 71
     5
 42
599.9999999996507
  3
納まり
100
AcDbAlignedDimension
 13
3236.264701429162
 23
4394.075877210243
 33
0.0
 14
3836.264701428812
 24
4394.075877210243
 34
0.0
100
AcDbRotatedDimension
  0
LINE
  5
4138
330
18
100
AcDbEntity
  8
納まり
100
AcDbLine
 10
3836.264701428812
 20
4394.075877210243
 30
0.0
 11
3236.264701429162
 21
4394.075877210243
 31
0.0
  0
ARC
  5
4139
330
18
100
AcDbEntity
  8
畳
  6
Continuous
100
AcDbCircle
 10
3661.646423555681
 20
4413.624932566819
 30
0.0
 40
19.63636339484871
100
AcDbArc
 50
179.9479980449586
 51
0.0510559084252
  0
LINE
  5
413A
330
18
100
AcDbEntity
  8
点検口
  6
Continuous
 62
     7
100
AcDbLine
 10
3830.264701428813
 20
4368.075877210331
 30
0.0
 11
3242.264701429045
 21
4368.075877210331
 31
0.0
  0
LINE
  5
413B
330
18
100
AcDbEntity
  8
点検口
  6
Continuous
 62
     7
100
AcDbLine
 10
3250.264701429045
 20
4372.07587721033
 30
0.0
 11
3822.264701428812
 21
4372.07587721033
 31
0.0
  0
LINE
  5
413C
330
18
100
AcDbEntity
  8
点検口
  6
Continuous
 62
     7
100
AcDbLine
 10
3834.264701428813
 20
4364.075877210331
 30
0.0
 11
3262.264701428929
 21
4364.075877210331
 31
0.0
  0
LINE
  5
413D
330
18
100
AcDbEntity
  8
点検口
  6
Continuous
 62
     7
100
AcDbLine
 10
3236.264701429162
 20
4394.075877210243
 30
0.0
 11
3836.264701428812
 21
4394.075877210243
 31
0.0
  0
ARC
  5
413E
330
18
100
AcDbEntity
  8
畳
  6
Continuous
100
AcDbCircle
 10
3347.46500397741
 20
4413.663933193268
 30
0.0
 40
19.63636339484871
100
AcDbArc
 50
179.9489440915748
 51
0.0520019550413922
  0
ARC
  5
413F
330
18
100
AcDbEntity
  8
畳
  6
Continuous
100
AcDbCircle
 10
3268.919508170537
 20
4413.663933193268
 30
0.0
 40
19.63636339484871
100
AcDbArc
 50
179.9479980449586
 51
0.0510559084252
  0
ARC
  5
4140
330
18
100
AcDbEntity
  8
畳
  6
Continuous
100
AcDbCircle
 10
3583.101074591385
 20
4413.647938798969
 30
0.0
 40
19.63636339484871
100
AcDbArc
 50
179.9489440915748
 51
0.0520019550413922
  0
ARC
  5
4141
330
18
100
AcDbEntity
  8
畳
  6
Continuous
100
AcDbCircle
 10
3426.0103529417
 20
4413.640926961119
 30
0.0
 40
19.63636339484871
100
AcDbArc
 50
179.9479980449586
 51
0.0510559084252
  0
ARC
  5
4142
330
18
100
AcDbEntity
  8
畳
  6
Continuous
100
AcDbCircle
 10
3504.555578784512
 20
4413.647938798969
 30
0.0
 40
19.63636339484871
100
AcDbArc
 50
179.9479980449586
 51
0.0510559084252
  0
LINE
  5
4143
330
18
100
AcDbEntity
  8
点検口
  6
Continuous
 62
     7
100
AcDbLine
 10
3451.264701428929
 20
4364.075877210331
 30
0.0
 11
3238.264701429045
 21
4364.075877210331
 31
0.0
  0
CIRCLE
  5
4144
330
18
100
AcDbEntity
  8
点検口
  6
Continuous
 62
     7
100
AcDbCircle
 10
3316.514701429046
 20
4388.575877210331
 30
0.0
 40
2.5
  0
LINE
  5
4145
330
18
100
AcDbEntity
  8
点検口
  6
Continuous
 62
     7
100
AcDbLine
 10
3308.226163855161
 20
4394.075877210243
 30
0.0
 11
3316.514701429046
 21
4394.075877210243
 31
0.0
  0
ARC
  5
4146
330
18
100
AcDbEntity
  8
点検口
  6
Continuous
 62
     7
100
AcDbCircle
 10
3316.514701429046
 20
4388.82587721033
 30
0.0
 40
5.25
100
AcDbArc
 50
90.0
 51
180.0
  0
ARC
  5
4147
330
18
100
AcDbEntity
  8
点検口
  6
Continuous
 62
     7
100
AcDbCircle
 10
3316.514701429046
 20
4388.82587721033
 30
0.0
 40
4.25
100
AcDbArc
 50
90.0
 51
180.0
  0
LINE
  5
4148
330
18
100
AcDbEntity
  8
点検口
  6
Continuous
 62
     7
100
AcDbLine
 10
3311.226163855277
 20
4379.275877210342
 30
0.0
 11
3319.983689049714
 21
4379.275877210342
 31
0.0
  0
LINE
  5
4149
330
18
100
AcDbEntity
  8
点検口
  6
Continuous
 62
     7
100
AcDbLine
 10
3311.226163855277
 20
4378.275877210342
 30
0.0
 11
3319.983689049714
 21
4378.275877210342
 31
0.0
  0
LINE
  5
414A
330
18
100
AcDbEntity
  8
点検口
  6
Continuous
 62
     7
100
AcDbLine
 10
3311.264701428929
 20
4380.575877210331
 30
0.0
 11
3360.264701428929
 21
4380.575877210331
 31
0.0
  0
ARC
  5
414B
330
18
100
AcDbEntity
  8
0０グルプ-1水色実線
  6
Continuous
 62
     7
100
AcDbCircle
 10
3254.264701429155
 20
4334.075877210244
 30
0.0
 40
2.0
100
AcDbArc
 50
270.0
 51
0.0
  0
POLYLINE
  5
414C
330
18
100
AcDbEntity
  8
0０グルプ-1水色実線
  6
Continuous
 62
     7
100
AcDb2dPolyline
 66
     1
 10
0.0
 20
0.0
 30
0.0
  0
VERTEX
  5
414D
330
414C
100
AcDbEntity
  8
0０グルプ-1水色実線
  6
Continuous
 62
     7
100
AcDbVertex
100
AcDb2dVertex
 10
3218.264701429162
 20
4332.075877210243
 30
0.0
  0
VERTEX
  5
414E
330
414C
100
AcDbEntity
  8
0０グルプ-1水色実線
  6
Continuous
 62
     7
100
AcDbVertex
100
AcDb2dVertex
 10
3236.264701429162
 20
4332.075877210243
 30
0.0
  0
VERTEX
  5
414F
330
414C
100
AcDbEntity
  8
0０グルプ-1水色実線
  6
Continuous
 62
     7
100
AcDbVertex
100
AcDb2dVertex
 10
3254.264701429155
 20
4332.075877210243
 30
0.0
  0
SEQEND
  5
4150
330
414C
100
AcDbEntity
  8
0０グルプ-1水色実線
  0
ARC
  5
4151
330
18
100
AcDbEntity
  8
0０グルプ-1水色実線
  6
Continuous
 62
     7
100
AcDbCircle
 10
3218.264701429162
 20
4334.075877210244
 30
0.0
 40
2.0
100
AcDbArc
 50
180.0
 51
270.0
  0
LINE
  5
4152
330
18
100
AcDbEntity
  8
点検口
  6
Continuous
 62
     7
100
AcDbLine
 10
3286.264701429154
 20
4364.075877210331
 30
0.0
 11
3236.264701429162
 21
4364.075877210331
 31
0.0
  0
LINE
  5
4153
330
18
100
AcDbEntity
  8
点検口
  6
Continuous
 62
     7
100
AcDbLine
 10
3286.264701429154
 20
4364.075877210331
 30
0.0
 11
3286.264701429154
 21
4336.075877210244
 31
0.0
  0
LINE
  5
4154
330
18
100
AcDbEntity
  8
点検口
  6
Continuous
 62
     7
100
AcDbLine
 10
3236.264701429162
 20
4394.075877210243
 30
0.0
 11
3236.264701429162
 21
4359.075877210243
 31
0.0
  0
LINE
  5
4155
330
18
100
AcDbEntity
  8
点検口
  6
Continuous
 62
     7
100
AcDbLine
 10
3252.264701429045
 20
4394.075877210243
 30
0.0
 11
3252.264701429045
 21
4372.07587721033
 31
0.0
  0
LINE
  5
4156
330
18
100
AcDbEntity
  8
点検口
  6
Continuous
 62
     7
100
AcDbLine
 10
3248.264701429045
 20
4374.075877210244
 30
0.0
 11
3248.264701429045
 21
4394.075877210243
 31
0.0
  0
ARC
  5
4157
330
18
100
AcDbEntity
  8
点検口
  6
Continuous
 62
     7
100
AcDbCircle
 10
3250.264701429045
 20
4374.075877210244
 30
0.0
 40
2.0
100
AcDbArc
 50
179.9965036901947
 51
270.0030000005118
  0
ARC
  5
4158
330
18
100
AcDbEntity
  8
点検口
  6
Continuous
 62
     7
100
AcDbCircle
 10
3242.264701429045
 20
4388.075877210243
 30
0.0
 40
2.0
100
AcDbArc
 50
0.0010000007260161
 51
90.00350000504434
  0
ARC
  5
4159
330
18
100
AcDbEntity
  8
点検口
  6
Continuous
 62
     7
100
AcDbCircle
 10
3242.264701429045
 20
4388.075877210243
 30
0.0
 40
2.0
100
AcDbArc
 50
90.02270000089827
 51
179.9991293910046
  0
ARC
  5
415A
330
18
100
AcDbEntity
  8
点検口
  6
Continuous
 62
     7
100
AcDbCircle
 10
3242.264701429045
 20
4370.07587721033
 30
0.0
 40
2.0
100
AcDbArc
 50
180.0
 51
269.9770000043629
  0
ARC
  5
415B
330
18
100
AcDbEntity
  8
点検口
  6
Continuous
 62
     7
100
AcDbCircle
 10
3238.264701429045
 20
4366.07587721033
 30
0.0
 40
2.0
100
AcDbArc
 50
180.0050000003011
 51
270.0030000005118
  0
LINE
  5
415C
330
18
100
AcDbEntity
  8
点検口
  6
Continuous
 62
     7
100
AcDbLine
 10
3244.264701429162
 20
4388.075877210243
 30
0.0
 11
3244.264701429162
 21
4368.075877210331
 31
0.0
  0
POLYLINE
  5
415D
330
18
100
AcDbEntity
  8
点検口
  6
Continuous
 62
     7
100
AcDb2dPolyline
 66
     1
 10
0.0
 20
0.0
 30
0.0
  0
VERTEX
  5
415E
330
415D
100
AcDbEntity
  8
点検口
  6
Continuous
 62
     7
100
AcDbVertex
100
AcDb2dVertex
 10
3240.264701429278
 20
4388.075907600231
 30
0.0
  0
VERTEX
  5
415F
330
415D
100
AcDbEntity
  8
点検口
  6
Continuous
 62
     7
100
AcDbVertex
100
AcDb2dVertex
 10
3240.264701429045
 20
4370.07587721033
 30
0.0
  0
VERTEX
  5
4160
330
415D
100
AcDbEntity
  8
点検口
  6
Continuous
 62
     7
100
AcDbVertex
100
AcDb2dVertex
 10
3240.264701429045
 20
4388.075877210243
 30
0.0
  0
SEQEND
  5
4161
330
415D
100
AcDbEntity
  8
点検口
  0
LINE
  5
4162
330
18
100
AcDbEntity
  8
点検口
  6
Continuous
 62
     7
100
AcDbLine
 10
3312.264701429045
 20
4388.82587721033
 30
0.0
 11
3312.264701429045
 21
4380.575877210331
 31
0.0
  0
LINE
  5
4163
330
18
100
AcDbEntity
  8
点検口
  6
Continuous
 62
     7
100
AcDbLine
 10
3311.264701428929
 20
4388.82587721033
 30
0.0
 11
3311.264701428929
 21
4380.575877210331
 31
0.0
  0
ARC
  5
4164
330
18
100
AcDbEntity
  8
点検口
  6
Continuous
 62
     7
100
AcDbCircle
 10
3311.226163855277
 20
4380.275877210342
 30
0.0
 40
1.0
100
AcDbArc
 50
180.0
 51
270.0
  0
LINE
  5
4165
330
18
100
AcDbEntity
  8
点検口
  6
Continuous
 62
     7
100
AcDbLine
 10
3310.226163855278
 20
4392.075877210331
 30
0.0
 11
3310.226163855278
 21
4380.275877210342
 31
0.0
  0
ARC
  5
4166
330
18
100
AcDbEntity
  8
点検口
  6
Continuous
 62
     7
100
AcDbCircle
 10
3308.226163855263
 20
4392.075877210229
 30
0.0
 40
2.000000000015
100
AcDbArc
 50
0.0000000033350533
 51
90.00000000291818
  0
LINE
  5
4167
330
18
100
AcDbEntity
  8
点検口
  6
Continuous
 62
     7
100
AcDbLine
 10
3306.264701428929
 20
4394.075877210243
 30
0.0
 11
3308.226163855161
 21
4394.075877210243
 31
0.0
  0
ARC
  5
4168
330
18
100
AcDbEntity
  8
点検口
  6
Continuous
 62
     7
100
AcDbCircle
 10
3311.226163855277
 20
4380.275877210342
 30
0.0
 40
2.0
100
AcDbArc
 50
180.0
 51
270.0
  0
LINE
  5
4169
330
18
100
AcDbEntity
  8
点検口
  6
Continuous
 62
     7
100
AcDbLine
 10
3309.226163855277
 20
4392.075877210331
 30
0.0
 11
3309.226163855277
 21
4380.275877210342
 31
0.0
  0
ARC
  5
416A
330
18
100
AcDbEntity
  8
点検口
  6
Continuous
 62
     7
100
AcDbCircle
 10
3308.226163855263
 20
4392.075877210229
 30
0.0
 40
1.000000000015
100
AcDbArc
 50
0.0000000058363433
 51
90.00000000583636
  0
POLYLINE
  5
416B
330
18
100
AcDbEntity
  8
点検口
  6
Continuous
 62
     7
100
AcDb2dPolyline
 66
     1
 10
0.0
 20
0.0
 30
0.0
  0
VERTEX
  5
416C
330
416B
100
AcDbEntity
  8
点検口
  6
Continuous
 62
     7
100
AcDbVertex
100
AcDb2dVertex
 10
3306.264701428929
 20
4394.075877210243
 30
0.0
  0
VERTEX
  5
416D
330
416B
100
AcDbEntity
  8
点検口
  6
Continuous
 62
     7
100
AcDbVertex
100
AcDb2dVertex
 10
3306.264701428929
 20
4393.075877210243
 30
0.0
  0
VERTEX
  5
416E
330
416B
100
AcDbEntity
  8
点検口
  6
Continuous
 62
     7
100
AcDbVertex
100
AcDb2dVertex
 10
3308.226163855161
 20
4393.075877210243
 30
0.0
  0
SEQEND
  5
416F
330
416B
100
AcDbEntity
  8
点検口
  0
ARC
  5
4170
330
18
100
AcDbEntity
  8
点検口
  6
Continuous
 62
     7
100
AcDbCircle
 10
3363.303239002697
 20
4392.075877210331
 30
0.0
 40
1.0
100
AcDbArc
 50
90.0
 51
180.0
  0
LINE
  5
4171
330
18
100
AcDbEntity
  8
点検口
  6
Continuous
 62
     7
100
AcDbLine
 10
3322.872921090679
 20
4378.042163206848
 30
0.0
 11
3326.191705555295
 21
4374.575877210331
 31
0.0
  0
ARC
  5
4172
330
18
100
AcDbEntity
  8
点検口
  6
Continuous
 62
     7
100
AcDbCircle
 10
3319.983689049714
 20
4375.275877210342
 30
0.0
 40
4.0
100
AcDbArc
 50
43.75463573178421
 51
90.0
  0
LINE
  5
4173
330
18
100
AcDbEntity
  8
点検口
  6
Continuous
 62
     7
100
AcDbLine
 10
3342.545713808028
 20
4378.275877210342
 30
0.0
 11
3351.948944623222
 21
4378.275877210342
 31
0.0
  0
ARC
  5
4174
330
18
100
AcDbEntity
  8
点検口
  6
Continuous
 62
     7
100
AcDbCircle
 10
3342.545713808028
 20
4375.275877210342
 30
0.0
 40
3.0
100
AcDbArc
 50
90.0
 51
136.2453642682158
  0
LINE
  5
4175
330
18
100
AcDbEntity
  8
点検口
  6
Continuous
 62
     7
100
AcDbLine
 10
3337.060005312775
 20
4373.884305711139
 30
0.0
 11
3340.378789777391
 21
4377.350591707743
 31
0.0
  0
ARC
  5
4176
330
18
100
AcDbEntity
  8
点検口
  6
Continuous
 62
     7
100
AcDbCircle
 10
3336.337697302679
 20
4374.575877210331
 30
0.0
 40
1.0
100
AcDbArc
 50
270.0
 51
316.2453642682158
  0
LINE
  5
4177
330
18
100
AcDbEntity
  8
点検口
  6
Continuous
 62
     7
100
AcDbLine
 10
3326.191705555295
 20
4373.57587721033
 30
0.0
 11
3336.337697302679
 21
4373.57587721033
 31
0.0
  0
ARC
  5
4178
330
18
100
AcDbEntity
  8
点検口
  6
Continuous
 62
     7
100
AcDbCircle
 10
3326.191705555295
 20
4374.575877210331
 30
0.0
 40
1.0
100
AcDbArc
 50
223.7546357317842
 51
270.0
  0
LINE
  5
4179
330
18
100
AcDbEntity
  8
点検口
  6
Continuous
 62
     7
100
AcDbLine
 10
3322.15061308035
 20
4377.350591707743
 30
0.0
 11
3325.469397545083
 21
4373.884305711139
 31
0.0
  0
ARC
  5
417A
330
18
100
AcDbEntity
  8
点検口
  6
Continuous
 62
     7
100
AcDbCircle
 10
3319.983689049714
 20
4375.275877210342
 30
0.0
 40
3.0
100
AcDbArc
 50
43.75463573178421
 51
90.0
  0
LINE
  5
417B
330
18
100
AcDbEntity
  8
点検口
  6
Continuous
 62
     7
100
AcDbLine
 10
3355.264701428929
 20
4394.075877210243
 30
0.0
 11
3342.774320372136
 21
4394.075877210243
 31
0.0
  0
LINE
  5
417C
330
18
100
AcDbEntity
  8
点検口
  6
Continuous
 62
     7
100
AcDbLine
 10
3360.264701428929
 20
4380.575877210331
 30
0.0
 11
3360.264701428929
 21
4393.075877210243
 31
0.0
  0
LINE
  5
417D
330
18
100
AcDbEntity
  8
点検口
  6
Continuous
 62
     7
100
AcDbLine
 10
3355.264701428929
 20
4393.075877210243
 30
0.0
 11
3360.264701428929
 21
4393.075877210243
 31
0.0
  0
LINE
  5
417E
330
18
100
AcDbEntity
  8
点検口
  6
Continuous
 62
     7
100
AcDbLine
 10
3326.191705555295
 20
4374.575877210331
 30
0.0
 11
3336.337697302679
 21
4374.575877210331
 31
0.0
  0
ARC
  5
417F
330
18
100
AcDbEntity
  8
点検口
  6
Continuous
 62
     7
100
AcDbCircle
 10
3359.580458234635
 20
4381.275877210343
 30
0.0
 40
3.0
100
AcDbArc
 50
232.3728093696955
 51
270.0
  0
ARC
  5
4180
330
18
100
AcDbEntity
  8
点検口
  6
Continuous
 62
     7
100
AcDbCircle
 10
3351.948944623222
 20
4381.275877210343
 30
0.0
 40
3.0
100
AcDbArc
 50
270.0
 51
307.6271906303045
  0
POLYLINE
  5
4181
330
18
100
AcDbEntity
  8
点検口
  6
Continuous
 62
     7
100
AcDb2dPolyline
 66
     1
 10
0.0
 20
0.0
 30
0.0
  0
VERTEX
  5
4182
330
4181
100
AcDbEntity
  8
点検口
  6
Continuous
 62
     7
100
AcDbVertex
100
AcDb2dVertex
 10
3363.303239002697
 20
4393.075877210243
 30
0.0
  0
VERTEX
  5
4183
330
4181
100
AcDbEntity
  8
点検口
  6
Continuous
 62
     7
100
AcDbVertex
100
AcDb2dVertex
 10
3366.264701428928
 20
4393.075877210243
 30
0.0
  0
VERTEX
  5
4184
330
4181
100
AcDbEntity
  8
点検口
  6
Continuous
 62
     7
100
AcDbVertex
100
AcDb2dVertex
 10
3366.264701428928
 20
4394.075877210243
 30
0.0
  0
SEQEND
  5
4185
330
4181
100
AcDbEntity
  8
点検口
  0
LINE
  5
4186
330
18
100
AcDbEntity
  8
点検口
  6
Continuous
 62
     7
100
AcDbLine
 10
3362.303239002697
 20
4380.275877210342
 30
0.0
 11
3362.303239002697
 21
4392.075877210331
 31
0.0
  0
ARC
  5
4187
330
18
100
AcDbEntity
  8
点検口
  6
Continuous
 62
     7
100
AcDbCircle
 10
3360.303239002697
 20
4380.275877210342
 30
0.0
 40
2.0
100
AcDbArc
 50
270.0
 51
0.0
  0
LINE
  5
4188
330
18
100
AcDbEntity
  8
点検口
  6
Continuous
 62
     7
100
AcDbLine
 10
3359.580458234635
 20
4378.275877210342
 30
0.0
 11
3360.303239002697
 21
4378.275877210342
 31
0.0
  0
LINE
  5
4189
330
18
100
AcDbEntity
  8
点検口
  6
Continuous
 62
     7
100
AcDbLine
 10
3363.264701428929
 20
4394.075877210243
 30
0.0
 11
3366.264701428928
 21
4394.075877210243
 31
0.0
  0
ARC
  5
418A
330
18
100
AcDbEntity
  8
点検口
  6
Continuous
 62
     7
100
AcDbCircle
 10
3363.264701428943
 20
4392.075877210345
 30
0.0
 40
1.999999999897999
100
AcDbArc
 50
90.00000000041687
 51
180.0
  0
LINE
  5
418B
330
18
100
AcDbEntity
  8
点検口
  6
Continuous
 62
     7
100
AcDbLine
 10
3361.264701429045
 20
4380.275877210342
 30
0.0
 11
3361.264701429045
 21
4392.075877210331
 31
0.0
  0
ARC
  5
418C
330
18
100
AcDbEntity
  8
点検口
  6
Continuous
 62
     7
100
AcDbCircle
 10
3360.264701428987
 20
4380.2758772104
 30
0.0
 40
1.000000000058
100
AcDbArc
 50
269.9999999966649
 51
359.9999999966649
  0
LINE
  5
418D
330
18
100
AcDbEntity
  8
点検口
  6
Continuous
 62
     7
100
AcDbLine
 10
3358.824113137078
 20
4379.275877210342
 30
0.0
 11
3360.264701428929
 21
4379.275877210342
 31
0.0
  0
ARC
  5
418E
330
18
100
AcDbEntity
  8
点検口
  6
Continuous
 62
     7
100
AcDbCircle
 10
3355.764701428929
 20
4376.325877210244
 30
0.0
 40
3.25
100
AcDbArc
 50
52.3728093696955
 51
127.6271906303045
  0
ARC
  5
418F
330
18
100
AcDbEntity
  8
点検口
  6
Continuous
 62
     7
100
AcDbCircle
 10
3355.764701428929
 20
4376.325877210244
 30
0.0
 40
4.25
100
AcDbArc
 50
43.95694672149489
 51
136.0430532785051
  0
ARC
  5
4190
330
18
100
AcDbEntity
  8
点検口
  6
Continuous
 62
     7
100
AcDbCircle
 10
3342.774320372136
 20
4393.575877210331
 30
0.0
 40
0.5
100
AcDbArc
 50
2.204227502689183
 51
90.0
  0
LINE
  5
4191
330
18
100
AcDbEntity
  8
点検口
  6
Continuous
 62
     7
100
AcDbLine
 10
3342.3017894111
 20
4393.075877210243
 30
0.0
 11
3316.514701429046
 21
4393.075877210243
 31
0.0
  0
LINE
  5
4192
330
18
100
AcDbEntity
  8
点検口
  6
Continuous
 62
     7
100
AcDbLine
 10
3342.774320372136
 20
4394.075877210243
 30
0.0
 11
3316.514701429046
 21
4394.075877210243
 31
0.0
  0
ARC
  5
4193
330
18
100
AcDbEntity
  8
点検口
  6
Continuous
 62
     7
100
AcDbCircle
 10
3355.764701428929
 20
4394.075877210243
 30
0.0
 40
13.5
100
AcDbArc
 50
184.2480226683399
 51
270.0
  0
LINE
  5
4194
330
18
100
AcDbEntity
  8
点検口
  6
Continuous
 62
     7
100
AcDbLine
 10
3355.764701428929
 20
4392.075877210331
 30
0.0
 11
3355.764701428929
 21
4380.575877210331
 31
0.0
  0
ARC
  5
4195
330
18
100
AcDbEntity
  8
点検口
  6
Continuous
 62
     7
100
AcDbCircle
 10
3355.764701428929
 20
4394.075877210243
 30
0.0
 40
12.5
100
AcDbArc
 50
182.2042275026891
 51
270.0
  0
POLYLINE
  5
4196
330
18
100
AcDbEntity
  8
点検口
  6
Continuous
 62
     7
100
AcDb2dPolyline
 66
     1
 10
0.0
 20
0.0
 30
0.0
  0
VERTEX
  5
4197
330
4196
100
AcDbEntity
  8
点検口
  6
Continuous
 62
     7
100
AcDbVertex
100
AcDb2dVertex
 10
3366.264701428928
 20
4394.075877210243
 30
0.0
  0
VERTEX
  5
4198
330
4196
100
AcDbEntity
  8
点検口
  6
Continuous
 62
     7
100
AcDbVertex
100
AcDb2dVertex
 10
3355.264701428929
 20
4394.075877210243
 30
0.0
  0
VERTEX
  5
4199
330
4196
100
AcDbEntity
  8
点検口
  6
Continuous
 62
     7
100
AcDbVertex
100
AcDb2dVertex
 10
3355.264701428929
 20
4392.075877210331
 30
0.0
  0
VERTEX
  5
419A
330
4196
100
AcDbEntity
  8
点検口
  6
Continuous
 62
     7
100
AcDbVertex
100
AcDb2dVertex
 10
3356.264701428929
 20
4392.075877210331
 30
0.0
  0
VERTEX
  5
419B
330
4196
100
AcDbEntity
  8
点検口
  6
Continuous
 62
     7
100
AcDbVertex
100
AcDb2dVertex
 10
3356.264701428929
 20
4380.575877210331
 30
0.0
  0
VERTEX
  5
419C
330
4196
100
AcDbEntity
  8
点検口
  6
Continuous
 62
     7
100
AcDbVertex
100
AcDb2dVertex
 10
3361.264701429045
 20
4380.575877210331
 30
0.0
  0
SEQEND
  5
419D
330
4196
100
AcDbEntity
  8
点検口
  0
LINE
  5
419E
330
18
100
AcDbEntity
  8
点検口
  6
Continuous
 62
     7
100
AcDbLine
 10
3342.545713808028
 20
4379.275877210342
 30
0.0
 11
3352.70528972078
 21
4379.275877210342
 31
0.0
  0
ARC
  5
419F
330
18
100
AcDbEntity
  8
点検口
  6
Continuous
 62
     7
100
AcDbCircle
 10
3342.545713808049
 20
4375.275877210415
 30
0.0
 40
3.999999999927999
100
AcDbArc
 50
90.00000000041687
 51
136.2453642673128
  0
LINE
  5
41A0
330
18
100
AcDbEntity
  8
点検口
  6
Continuous
 62
     7
100
AcDbLine
 10
3336.337697302679
 20
4374.575877210331
 30
0.0
 11
3339.656481767296
 21
4378.042163206848
 31
0.0
  0
CIRCLE
  5
41A1
330
18
100
AcDbEntity
  8
納まり文字
 62
     7
100
AcDbCircle
 10
3528.659087906901
 20
4385.541276371363
 30
0.0
 40
3.0
  0
LINE
  5
41A2
330
18
100
AcDbEntity
  8
点検口
  6
Continuous
 62
     7
100
AcDbLine
 10
3479.664701428952
 20
4364.075877210331
 30
0.0
 11
3479.664701428952
 21
4349.875877210348
 31
0.0
  0
POLYLINE
  5
41A3
330
18
100
AcDbEntity
  8
点検口
  6
Continuous
 62
     7
100
AcDb2dPolyline
 66
     1
 10
0.0
 20
0.0
 30
0.0
  0
VERTEX
  5
41A4
330
41A3
100
AcDbEntity
  8
点検口
  6
Continuous
 62
     7
100
AcDbVertex
100
AcDb2dVertex
 10
3479.664701428952
 20
4349.875877210348
 30
0.0
  0
VERTEX
  5
41A5
330
41A3
100
AcDbEntity
  8
点検口
  6
Continuous
 62
     7
100
AcDbVertex
100
AcDb2dVertex
 10
3452.864701428906
 20
4349.875877210348
 30
0.0
  0
VERTEX
  5
41A6
330
41A3
100
AcDbEntity
  8
点検口
  6
Continuous
 62
     7
100
AcDbVertex
100
AcDb2dVertex
 10
3452.864701428906
 20
4364.075877210331
 30
0.0
  0
SEQEND
  5
41A7
330
41A3
100
AcDbEntity
  8
点検口
  0
POLYLINE
  5
41A8
330
18
100
AcDbEntity
  8
点検口
  6
Continuous
 62
     7
100
AcDb2dPolyline
 66
     1
 10
0.0
 20
0.0
 30
0.0
  0
VERTEX
  5
41A9
330
41A8
100
AcDbEntity
  8
点検口
  6
Continuous
 62
     7
100
AcDbVertex
100
AcDb2dVertex
 10
3481.264701429046
 20
4364.075877210331
 30
0.0
  0
VERTEX
  5
41AA
330
41A8
100
AcDbEntity
  8
点検口
  6
Continuous
 62
     7
100
AcDbVertex
100
AcDb2dVertex
 10
3481.264701429046
 20
4348.275877210342
 30
0.0
  0
VERTEX
  5
41AB
330
41A8
100
AcDbEntity
  8
点検口
  6
Continuous
 62
     7
100
AcDbVertex
100
AcDb2dVertex
 10
3451.264701428929
 20
4348.275877210342
 30
0.0
  0
VERTEX
  5
41AC
330
41A8
100
AcDbEntity
  8
点検口
  6
Continuous
 62
     7
100
AcDbVertex
100
AcDb2dVertex
 10
3451.264701428929
 20
4364.075877210331
 30
0.0
  0
SEQEND
  5
41AD
330
41A8
100
AcDbEntity
  8
点検口
  0
POLYLINE
  5
41AE
330
18
100
AcDbEntity
  8
点検口
  6
Continuous
 62
     7
100
AcDb2dPolyline
 66
     1
 10
0.0
 20
0.0
 30
0.0
  0
VERTEX
  5
41AF
330
41AE
100
AcDbEntity
  8
点検口
  6
Continuous
 62
     7
100
AcDbVertex
100
AcDb2dVertex
 10
3619.664701428952
 20
4364.075877210331
 30
0.0
  0
VERTEX
  5
41B0
330
41AE
100
AcDbEntity
  8
点検口
  6
Continuous
 62
     7
100
AcDbVertex
100
AcDb2dVertex
 10
3619.664701428952
 20
4349.875877210348
 30
0.0
  0
VERTEX
  5
41B1
330
41AE
100
AcDbEntity
  8
点検口
  6
Continuous
 62
     7
100
AcDbVertex
100
AcDb2dVertex
 10
3592.864701428906
 20
4349.875877210348
 30
0.0
  0
VERTEX
  5
41B2
330
41AE
100
AcDbEntity
  8
点検口
  6
Continuous
 62
     7
100
AcDbVertex
100
AcDb2dVertex
 10
3592.864701428906
 20
4364.075877210331
 30
0.0
  0
SEQEND
  5
41B3
330
41AE
100
AcDbEntity
  8
点検口
  0
POLYLINE
  5
41B4
330
18
100
AcDbEntity
  8
点検口
  6
Continuous
 62
     7
100
AcDb2dPolyline
 66
     1
 10
0.0
 20
0.0
 30
0.0
  0
VERTEX
  5
41B5
330
41B4
100
AcDbEntity
  8
点検口
  6
Continuous
 62
     7
100
AcDbVertex
100
AcDb2dVertex
 10
3591.264701428928
 20
4364.075877210331
 30
0.0
  0
VERTEX
  5
41B6
330
41B4
100
AcDbEntity
  8
点検口
  6
Continuous
 62
     7
100
AcDbVertex
100
AcDb2dVertex
 10
3591.264701428928
 20
4348.275877210342
 30
0.0
  0
VERTEX
  5
41B7
330
41B4
100
AcDbEntity
  8
点検口
  6
Continuous
 62
     7
100
AcDbVertex
100
AcDb2dVertex
 10
3621.264701428929
 20
4348.275877210342
 30
0.0
  0
VERTEX
  5
41B8
330
41B4
100
AcDbEntity
  8
点検口
  6
Continuous
 62
     7
100
AcDbVertex
100
AcDb2dVertex
 10
3621.264701428929
 20
4364.075877210331
 30
0.0
  0
SEQEND
  5
41B9
330
41B4
100
AcDbEntity
  8
点検口
  0
ARC
  5
41BA
330
18
100
AcDbEntity
  8
畳
  6
Continuous
100
AcDbCircle
 10
3308.192256073974
 20
4434.391219674363
 30
0.0
 40
19.63636339484871
100
AcDbArc
 50
0.0520019550413922
 51
179.9489440915748
  0
LINE
  5
41BB
330
18
100
AcDbEntity
  8
畳
  6
Continuous
100
AcDbLine
 10
3288.555900475327
 20
4436.365707835984
 30
0.0
 11
3288.555900475327
 21
4413.674743421392
 31
0.0
  0
LINE
  5
41BC
330
18
100
AcDbEntity
  8
畳
  6
Continuous
100
AcDbLine
 10
3249.283385829822
 20
4436.358695998134
 30
0.0
 11
3249.283385829822
 21
4413.667731583542
 31
0.0
  0
ARC
  5
41BD
330
18
100
AcDbEntity
  8
畳
  6
Continuous
100
AcDbCircle
 10
3229.647030231161
 20
4434.384207836514
 30
0.0
 40
19.63636339484871
100
AcDbArc
 50
0.0510559084252
 51
179.9479980449586
  0
LINE
  5
41BE
330
18
100
AcDbEntity
  8
畳
  6
Continuous
100
AcDbLine
 10
3210.010656279392
 20
4413.667731583542
 30
0.0
 11
3210.010656279392
 21
4434.940664327734
 31
0.0
  0
LINE
  5
41BF
330
18
100
AcDbEntity
  8
畳
  6
Continuous
100
AcDbLine
 10
3327.828630025742
 20
4413.674743421392
 30
0.0
 11
3327.828630025742
 21
4434.947676165584
 31
0.0
  0
LINE
  5
41C0
330
18
100
AcDbEntity
  8
畳
  6
Continuous
100
AcDbLine
 10
3406.374114117778
 20
4436.342701603835
 30
0.0
 11
3406.374114117778
 21
4413.651737189242
 31
0.0
  0
ARC
  5
41C1
330
18
100
AcDbEntity
  8
畳
  6
Continuous
100
AcDbCircle
 10
3386.737758519117
 20
4434.368213442215
 30
0.0
 40
19.63636339484871
100
AcDbArc
 50
0.0510559084252
 51
179.9479980449586
  0
LINE
  5
41C2
330
18
100
AcDbEntity
  8
畳
  6
Continuous
100
AcDbLine
 10
3367.101384567348
 20
4413.651737189242
 30
0.0
 11
3367.101384567348
 21
4434.924669933434
 31
0.0
  0
ARC
  5
41C3
330
18
100
AcDbEntity
  8
畳
  6
Continuous
100
AcDbCircle
 10
3543.828326687948
 20
4434.375225280049
 30
0.0
 40
19.63636339484871
100
AcDbArc
 50
0.0520019550413922
 51
179.9489440915748
  0
LINE
  5
41C4
330
18
100
AcDbEntity
  8
畳
  6
Continuous
100
AcDbLine
 10
3524.191971089301
 20
4436.349713441685
 30
0.0
 11
3524.191971089301
 21
4413.658749027077
 31
0.0
  0
LINE
  5
41C5
330
18
100
AcDbEntity
  8
畳
  6
Continuous
100
AcDbLine
 10
3484.919456443797
 20
4436.342701603835
 30
0.0
 11
3484.919456443797
 21
4413.651737189228
 31
0.0
  0
ARC
  5
41C6
330
18
100
AcDbEntity
  8
畳
  6
Continuous
100
AcDbCircle
 10
3465.283100845136
 20
4434.3682134422
 30
0.0
 40
19.63636339484871
100
AcDbArc
 50
0.0510559084252
 51
179.9479980449586
  0
LINE
  5
41C7
330
18
100
AcDbEntity
  8
畳
  6
Continuous
100
AcDbLine
 10
3445.646726893367
 20
4413.651737189228
 30
0.0
 11
3445.646726893367
 21
4434.924669933434
 31
0.0
  0
LINE
  5
41C8
330
18
100
AcDbEntity
  8
畳
  6
Continuous
100
AcDbLine
 10
3563.464700639717
 20
4413.658749027077
 30
0.0
 11
3563.464700639717
 21
4434.931681771284
 31
0.0
  0
LINE
  5
41C9
330
18
100
AcDbEntity
  8
畳
  6
Continuous
100
AcDbLine
 10
3642.01018473176
 20
4436.326707209535
 30
0.0
 11
3642.01018473176
 21
4413.635742794943
 31
0.0
  0
ARC
  5
41CA
330
18
100
AcDbEntity
  8
畳
  6
Continuous
100
AcDbCircle
 10
3622.3738291331
 20
4434.3522190479
 30
0.0
 40
19.63636339484871
100
AcDbArc
 50
0.0510559084252
 51
179.9479980449586
  0
LINE
  5
41CB
330
18
100
AcDbEntity
  8
畳
  6
Continuous
100
AcDbLine
 10
3602.73745518133
 20
4413.635742794943
 30
0.0
 11
3602.73745518133
 21
4434.908675539134
 31
0.0
  0
ARC
  5
41CC
330
18
100
AcDbEntity
  8
畳
  6
Continuous
100
AcDbCircle
 10
3818.737145205367
 20
4413.631944404669
 30
0.0
 40
19.63636339484871
100
AcDbArc
 50
179.9489440915748
 51
0.0520019550413922
  0
ARC
  5
41CD
330
18
100
AcDbEntity
  8
畳
  6
Continuous
100
AcDbCircle
 10
3740.191649398493
 20
4413.631944404669
 30
0.0
 40
19.63636339484871
100
AcDbArc
 50
179.9479980449586
 51
0.0510559084252
  0
ARC
  5
41CE
330
18
100
AcDbEntity
  8
畳
  6
Continuous
100
AcDbCircle
 10
3897.282494169657
 20
4413.608938172504
 30
0.0
 40
19.63636339484871
100
AcDbArc
 50
179.9479980449586
 51
0.0510559084252
  0
LINE
  5
41CF
330
18
100
AcDbEntity
  8
納まり文字
 62
     7
100
AcDbLine
 10
3896.698513854677
 20
4114.616194116994
 30
0.0
 11
3866.698513854677
 21
4114.616194116994
 31
0.0
  0
LINE
  5
41D0
330
18
100
AcDbEntity
  8
納まり文字
 62
     7
100
AcDbLine
 10
3896.66856078753
 20
4253.336791679825
 30
0.0
 11
3866.66856078753
 21
4253.336791679825
 31
0.0
  0
LINE
  5
41D1
330
18
100
AcDbEntity
  8
納まり
100
AcDbLine
 10
4619.945218057945
 20
4391.075877210242
 30
0.0
 11
3836.264701428812
 21
4391.075877210243
 31
0.0
  0
LINE
  5
41D2
330
18
100
AcDbEntity
  8
納まり
100
AcDbLine
 10
4619.945218057945
 20
4359.075877210243
 30
0.0
 11
3836.264701428812
 21
4359.075877210243
 31
0.0
  0
LINE
  5
41D3
330
18
100
AcDbEntity
  8
納まり
100
AcDbLine
 10
4619.945218057945
 20
4379.075877210243
 30
0.0
 11
3836.264701428812
 21
4379.075877210243
 31
0.0
  0
LINE
  5
41D4
330
18
100
AcDbEntity
  8
納まり
100
AcDbLine
 10
4619.945218057945
 20
4387.075877210242
 30
0.0
 11
3836.264701428812
 21
4387.075877210243
 31
0.0
  0
LINE
  5
41D5
330
18
100
AcDbEntity
  8
納まり
100
AcDbLine
 10
4619.945218057945
 20
4383.075877210243
 30
0.0
 11
3836.264701428812
 21
4383.075877210243
 31
0.0
  0
POLYLINE
  5
41D6
330
18
100
AcDbEntity
  8
0０グルプ-1水色実線
  6
Continuous
 62
     7
100
AcDb2dPolyline
 66
     1
 10
0.0
 20
0.0
 30
0.0
  0
VERTEX
  5
41D7
330
41D6
100
AcDbEntity
  8
0０グルプ-1水色実線
  6
Continuous
 62
     7
100
AcDbVertex
100
AcDb2dVertex
 10
3871.264701428812
 20
4336.075877210244
 30
0.0
  0
VERTEX
  5
41D8
330
41D6
100
AcDbEntity
  8
0０グルプ-1水色実線
  6
Continuous
 62
     7
100
AcDbVertex
100
AcDb2dVertex
 10
3871.264701428812
 20
4334.075877210244
 30
0.0
  0
VERTEX
  5
41D9
330
41D6
100
AcDbEntity
  8
0０グルプ-1水色実線
  6
Continuous
 62
     7
100
AcDbVertex
100
AcDb2dVertex
 10
3801.264701428812
 20
4334.075877210244
 30
0.0
  0
VERTEX
  5
41DA
330
41D6
100
AcDbEntity
  8
0０グルプ-1水色実線
  6
Continuous
 62
     7
100
AcDbVertex
100
AcDb2dVertex
 10
3801.264701428812
 20
4336.075877210244
 30
0.0
  0
VERTEX
  5
41DB
330
41D6
100
AcDbEntity
  8
0０グルプ-1水色実線
  6
Continuous
 62
     7
100
AcDbVertex
100
AcDb2dVertex
 10
3871.264701428812
 20
4336.075877210244
 30
0.0
  0
SEQEND
  5
41DC
330
41D6
100
AcDbEntity
  8
0０グルプ-1水色実線
  0
LINE
  5
41DD
330
18
100
AcDbEntity
  8
点検口
  6
Continuous
 62
     7
100
AcDbLine
 10
3886.264701428812
 20
4359.075877210243
 30
0.0
 11
3786.264701428812
 21
4359.075877210243
 31
0.0
  0
LINE
  5
41DE
330
18
100
AcDbEntity
  8
点検口
  6
Continuous
 62
     7
100
AcDbLine
 10
3886.264701428812
 20
4336.075877210244
 30
0.0
 11
3786.264701428812
 21
4336.075877210244
 31
0.0
  0
LINE
  5
41DF
330
18
100
AcDbEntity
  8
納まり
100
AcDbLine
 10
4619.945218057945
 20
4394.075877210243
 30
0.0
 11
3836.264701428812
 21
4394.075877210243
 31
0.0
  0
CIRCLE
  5
41E0
330
18
100
AcDbEntity
  8
納まり文字
 62
     7
100
AcDbCircle
 10
3836.255059408697
 20
4194.437115800329
 30
0.0
 40
3.0
  0
LINE
  5
41E1
330
18
100
AcDbEntity
  8
納まり文字
 62
     7
100
AcDbLine
 10
3836.262757589143
 20
4194.487531452667
 30
0.0
 11
3866.698513854677
 21
4114.616194116994
 31
0.0
  0
LINE
  5
41E2
330
18
100
AcDbEntity
  8
点検口
  6
Continuous
 62
     7
100
AcDbLine
 10
3764.303239002697
 20
4394.075877210243
 30
0.0
 11
3756.014701428929
 21
4394.075877210243
 31
0.0
  0
ARC
  5
41E3
330
18
100
AcDbEntity
  8
点検口
  6
Continuous
 62
     7
100
AcDbCircle
 10
3756.014701428929
 20
4388.82587721033
 30
0.0
 40
5.25
100
AcDbArc
 50
0.0
 51
90.0
  0
ARC
  5
41E4
330
18
100
AcDbEntity
  8
点検口
  6
Continuous
 62
     7
100
AcDbCircle
 10
3756.014701428929
 20
4388.82587721033
 30
0.0
 40
4.25
100
AcDbArc
 50
0.0
 51
90.0
  0
LINE
  5
41E5
330
18
100
AcDbEntity
  8
点検口
  6
Continuous
 62
     7
100
AcDbLine
 10
3761.303239002697
 20
4379.275877210342
 30
0.0
 11
3752.545713808028
 21
4379.275877210342
 31
0.0
  0
LINE
  5
41E6
330
18
100
AcDbEntity
  8
点検口
  6
Continuous
 62
     7
100
AcDbLine
 10
3761.303239002697
 20
4378.275877210342
 30
0.0
 11
3752.545713808028
 21
4378.275877210342
 31
0.0
  0
LINE
  5
41E7
330
18
100
AcDbEntity
  8
点検口
  6
Continuous
 62
     7
100
AcDbLine
 10
3761.264701428929
 20
4380.575877210331
 30
0.0
 11
3712.264701428928
 21
4380.575877210331
 31
0.0
  0
LINE
  5
41E8
330
18
100
AcDbEntity
  8
点検口
  6
Continuous
 62
     7
100
AcDbLine
 10
3709.226163855162
 20
4393.075877210243
 30
0.0
 11
3706.264701428929
 21
4393.075877210243
 31
0.0
  0
ARC
  5
41E9
330
18
100
AcDbEntity
  8
点検口
  6
Continuous
 62
     7
100
AcDbCircle
 10
3709.226163855162
 20
4392.075877210331
 30
0.0
 40
1.0
100
AcDbArc
 50
0.0
 51
90.0
  0
LINE
  5
41EA
330
18
100
AcDbEntity
  8
点検口
  6
Continuous
 62
     7
100
AcDbLine
 10
3717.264701428929
 20
4393.075877210243
 30
0.0
 11
3712.264701428928
 21
4393.075877210243
 31
0.0
  0
LINE
  5
41EB
330
18
100
AcDbEntity
  8
点検口
  6
Continuous
 62
     7
100
AcDbLine
 10
3706.264701428929
 20
4393.075877210243
 30
0.0
 11
3706.264701428929
 21
4394.075877210243
 31
0.0
  0
POLYLINE
  5
41EC
330
18
100
AcDbEntity
  8
点検口
  6
Continuous
 62
     7
100
AcDb2dPolyline
 66
     1
 10
0.0
 20
0.0
 30
0.0
  0
VERTEX
  5
41ED
330
41EC
100
AcDbEntity
  8
点検口
  6
Continuous
 62
     7
100
AcDbVertex
100
AcDb2dVertex
 10
3706.264701428929
 20
4394.075877210243
 30
0.0
  0
VERTEX
  5
41EE
330
41EC
100
AcDbEntity
  8
点検口
  6
Continuous
 62
     7
100
AcDbVertex
100
AcDb2dVertex
 10
3717.264701428929
 20
4394.075877210243
 30
0.0
  0
VERTEX
  5
41EF
330
41EC
100
AcDbEntity
  8
点検口
  6
Continuous
 62
     7
100
AcDbVertex
100
AcDb2dVertex
 10
3717.264701428929
 20
4392.075877210331
 30
0.0
  0
VERTEX
  5
41F0
330
41EC
100
AcDbEntity
  8
点検口
  6
Continuous
 62
     7
100
AcDbVertex
100
AcDb2dVertex
 10
3716.264701429045
 20
4392.075877210331
 30
0.0
  0
SEQEND
  5
41F1
330
41EC
100
AcDbEntity
  8
点検口
  0
ARC
  5
41F2
330
18
100
AcDbEntity
  8
点検口
  6
Continuous
 62
     7
100
AcDbCircle
 10
3729.755082485721
 20
4393.575877210331
 30
0.0
 40
0.5
100
AcDbArc
 50
90.0
 51
177.7957724973108
  0
LINE
  5
41F3
330
18
100
AcDbEntity
  8
点検口
  6
Continuous
 62
     7
100
AcDbLine
 10
3717.264701428929
 20
4394.075877210243
 30
0.0
 11
3729.755082485721
 21
4394.075877210243
 31
0.0
  0
ARC
  5
41F4
330
18
100
AcDbEntity
  8
点検口
  6
Continuous
 62
     7
100
AcDbCircle
 10
3712.226163855277
 20
4380.275877210342
 30
0.0
 40
2.0
100
AcDbArc
 50
180.0
 51
270.0
  0
ARC
  5
41F5
330
18
100
AcDbEntity
  8
点検口
  6
Continuous
 62
     7
100
AcDbCircle
 10
3716.764701428929
 20
4376.325877210244
 30
0.0
 40
4.25
100
AcDbArc
 50
43.95694672149489
 51
136.0430532785051
  0
LINE
  5
41F6
330
18
100
AcDbEntity
  8
点検口
  6
Continuous
 62
     7
100
AcDbLine
 10
3712.948944623222
 20
4378.275877210342
 30
0.0
 11
3712.226163855277
 21
4378.275877210342
 31
0.0
  0
ARC
  5
41F7
330
18
100
AcDbEntity
  8
点検口
  6
Continuous
 62
     7
100
AcDbCircle
 10
3716.764701428929
 20
4376.325877210244
 30
0.0
 40
3.25
100
AcDbArc
 50
52.3728093696955
 51
127.6271906303045
  0
ARC
  5
41F8
330
18
100
AcDbEntity
  8
点検口
  6
Continuous
 62
     7
100
AcDbCircle
 10
3712.948944623222
 20
4381.275877210343
 30
0.0
 40
3.0
100
AcDbArc
 50
270.0
 51
307.6271906303045
  0
LINE
  5
41F9
330
18
100
AcDbEntity
  8
点検口
  6
Continuous
 62
     7
100
AcDbLine
 10
3716.264701429045
 20
4380.575877210331
 30
0.0
 11
3711.264701428929
 21
4380.575877210331
 31
0.0
  0
LINE
  5
41FA
330
18
100
AcDbEntity
  8
点検口
  6
Continuous
 62
     7
100
AcDbLine
 10
3729.983689049598
 20
4378.275877210342
 30
0.0
 11
3720.580458234752
 21
4378.275877210342
 31
0.0
  0
ARC
  5
41FB
330
18
100
AcDbEntity
  8
点検口
  6
Continuous
 62
     7
100
AcDbCircle
 10
3729.983689049598
 20
4375.275877210342
 30
0.0
 40
3.0
100
AcDbArc
 50
43.75463573178421
 51
90.0
  0
LINE
  5
41FC
330
18
100
AcDbEntity
  8
点検口
  6
Continuous
 62
     7
100
AcDbLine
 10
3735.469397545083
 20
4373.884305711139
 30
0.0
 11
3732.15061308035
 21
4377.350591707743
 31
0.0
  0
ARC
  5
41FD
330
18
100
AcDbEntity
  8
点検口
  6
Continuous
 62
     7
100
AcDbCircle
 10
3736.191705555295
 20
4374.575877210331
 30
0.0
 40
1.0
100
AcDbArc
 50
223.7546357317842
 51
270.0
  0
LINE
  5
41FE
330
18
100
AcDbEntity
  8
点検口
  6
Continuous
 62
     7
100
AcDbLine
 10
3749.656481767296
 20
4378.042163206848
 30
0.0
 11
3746.337697302563
 21
4374.575877210331
 31
0.0
  0
ARC
  5
41FF
330
18
100
AcDbEntity
  8
点検口
  6
Continuous
 62
     7
100
AcDbCircle
 10
3752.545713808028
 20
4375.275877210342
 30
0.0
 40
4.0
100
AcDbArc
 50
90.0
 51
136.2453642682158
  0
ARC
  5
4200
330
18
100
AcDbEntity
  8
点検口
  6
Continuous
 62
     7
100
AcDbCircle
 10
3746.337697302563
 20
4374.575877210331
 30
0.0
 40
1.0
100
AcDbArc
 50
270.0
 51
316.2453642682158
  0
LINE
  5
4201
330
18
100
AcDbEntity
  8
点検口
  6
Continuous
 62
     7
100
AcDbLine
 10
3750.378789777508
 20
4377.350591707743
 30
0.0
 11
3747.060005312775
 21
4373.884305711139
 31
0.0
  0
ARC
  5
4202
330
18
100
AcDbEntity
  8
点検口
  6
Continuous
 62
     7
100
AcDbCircle
 10
3752.545713808028
 20
4375.275877210342
 30
0.0
 40
3.0
100
AcDbArc
 50
90.0
 51
136.2453642682158
  0
LINE
  5
4203
330
18
100
AcDbEntity
  8
点検口
  6
Continuous
 62
     7
100
AcDbLine
 10
3746.337697302563
 20
4373.57587721033
 30
0.0
 11
3736.191705555295
 21
4373.57587721033
 31
0.0
  0
LINE
  5
4204
330
18
100
AcDbEntity
  8
点検口
  6
Continuous
 62
     7
100
AcDbLine
 10
3746.337697302563
 20
4374.575877210331
 30
0.0
 11
3736.191705555295
 21
4374.575877210331
 31
0.0
  0
LINE
  5
4205
330
18
100
AcDbEntity
  8
点検口
  6
Continuous
 62
     7
100
AcDbLine
 10
3729.983689049598
 20
4379.275877210342
 30
0.0
 11
3719.824113137078
 21
4379.275877210342
 31
0.0
  0
ARC
  5
4206
330
18
100
AcDbEntity
  8
点検口
  6
Continuous
 62
     7
100
AcDbCircle
 10
3729.983689049685
 20
4375.275877210138
 30
0.0
 40
4.0000000002
100
AcDbArc
 50
43.75463573473271
 51
90.00000000125064
  0
LINE
  5
4207
330
18
100
AcDbEntity
  8
点検口
  6
Continuous
 62
     7
100
AcDbLine
 10
3736.191705555295
 20
4374.575877210331
 30
0.0
 11
3732.872921090562
 21
4378.042163206848
 31
0.0
  0
ARC
  5
4208
330
18
100
AcDbEntity
  8
点検口
  6
Continuous
 62
     7
100
AcDbCircle
 10
3720.580458234752
 20
4381.275877210343
 30
0.0
 40
3.0
100
AcDbArc
 50
232.3728093696955
 51
270.0
  0
ARC
  5
4209
330
18
100
AcDbEntity
  8
点検口
  6
Continuous
 62
     7
100
AcDbCircle
 10
3716.764701428929
 20
4394.075877210243
 30
0.0
 40
12.5
100
AcDbArc
 50
270.0
 51
357.7957724973109
  0
ARC
  5
420A
330
18
100
AcDbEntity
  8
点検口
  6
Continuous
 62
     7
100
AcDbCircle
 10
3716.764701428929
 20
4394.075877210243
 30
0.0
 40
13.5
100
AcDbArc
 50
270.0
 51
355.7519773316601
  0
LINE
  5
420B
330
18
100
AcDbEntity
  8
点検口
  6
Continuous
 62
     7
100
AcDbLine
 10
3709.264701428929
 20
4394.075877210243
 30
0.0
 11
3706.264701428929
 21
4394.075877210243
 31
0.0
  0
ARC
  5
420C
330
18
100
AcDbEntity
  8
点検口
  6
Continuous
 62
     7
100
AcDbCircle
 10
3709.264701428973
 20
4392.075877210287
 30
0.0
 40
1.999999999955999
100
AcDbArc
 50
0.0000000016675267
 51
90.00000000125064
  0
LINE
  5
420D
330
18
100
AcDbEntity
  8
点検口
  6
Continuous
 62
     7
100
AcDbLine
 10
3711.264701428929
 20
4380.275877210342
 30
0.0
 11
3711.264701428929
 21
4392.075877210331
 31
0.0
  0
ARC
  5
420E
330
18
100
AcDbEntity
  8
点検口
  6
Continuous
 62
     7
100
AcDbCircle
 10
3712.264701428928
 20
4380.275877210342
 30
0.0
 40
1.0
100
AcDbArc
 50
180.0
 51
270.0
  0
LINE
  5
420F
330
18
100
AcDbEntity
  8
点検口
  6
Continuous
 62
     7
100
AcDbLine
 10
3713.70528972078
 20
4379.275877210342
 30
0.0
 11
3712.264701428928
 21
4379.275877210342
 31
0.0
  0
LINE
  5
4210
330
18
100
AcDbEntity
  8
点検口
  6
Continuous
 62
     7
100
AcDbLine
 10
3710.226163855278
 20
4380.275877210342
 30
0.0
 11
3710.226163855278
 21
4392.075877210331
 31
0.0
  0
LINE
  5
4211
330
18
100
AcDbEntity
  8
点検口
  6
Continuous
 62
     7
100
AcDbLine
 10
3712.264701428928
 20
4380.575877210331
 30
0.0
 11
3712.264701428928
 21
4393.075877210243
 31
0.0
  0
LINE
  5
4212
330
18
100
AcDbEntity
  8
点検口
  6
Continuous
 62
     7
100
AcDbLine
 10
3716.764701428929
 20
4392.075877210331
 30
0.0
 11
3716.764701428929
 21
4380.575877210331
 31
0.0
  0
LINE
  5
4213
330
18
100
AcDbEntity
  8
点検口
  6
Continuous
 62
     7
100
AcDbLine
 10
3716.264701429045
 20
4392.075877210331
 30
0.0
 11
3716.264701429045
 21
4380.575877210331
 31
0.0
  0
CIRCLE
  5
4214
330
18
100
AcDbEntity
  8
点検口
  6
Continuous
 62
     7
100
AcDbCircle
 10
3756.014701428929
 20
4388.575877210331
 30
0.0
 40
2.5
  0
LINE
  5
4215
330
18
100
AcDbEntity
  8
点検口
  6
Continuous
 62
     7
100
AcDbLine
 10
3729.755082485721
 20
4394.075877210243
 30
0.0
 11
3756.014701428929
 21
4394.075877210243
 31
0.0
  0
LINE
  5
4216
330
18
100
AcDbEntity
  8
点検口
  6
Continuous
 62
     7
100
AcDbLine
 10
3730.227613446874
 20
4393.075877210243
 30
0.0
 11
3756.014701428929
 21
4393.075877210243
 31
0.0
  0
CIRCLE
  5
4217
330
18
100
AcDbEntity
  8
納まり文字
 62
     7
100
AcDbCircle
 10
3836.22510634155
 20
4333.157713363101
 30
0.0
 40
3.0
  0
LINE
  5
4218
330
18
100
AcDbEntity
  8
納まり文字
 62
     7
100
AcDbLine
 10
3836.232804521995
 20
4333.20812901544
 30
0.0
 11
3866.66856078753
 21
4253.336791679825
 31
0.0
  0
ARC
  5
4219
330
18
100
AcDbEntity
  8
0０グルプ-1水色実線
  6
Continuous
 62
     7
100
AcDbCircle
 10
3854.264701428812
 20
4334.075877210244
 30
0.0
 40
2.0
100
AcDbArc
 50
270.0
 51
0.0
  0
POLYLINE
  5
421A
330
18
100
AcDbEntity
  8
0０グルプ-1水色実線
  6
Continuous
 62
     7
100
AcDb2dPolyline
 66
     1
 10
0.0
 20
0.0
 30
0.0
  0
VERTEX
  5
421B
330
421A
100
AcDbEntity
  8
0０グルプ-1水色実線
  6
Continuous
 62
     7
100
AcDbVertex
100
AcDb2dVertex
 10
3818.264701428812
 20
4332.075877210243
 30
0.0
  0
VERTEX
  5
421C
330
421A
100
AcDbEntity
  8
0０グルプ-1水色実線
  6
Continuous
 62
     7
100
AcDbVertex
100
AcDb2dVertex
 10
3836.264701428812
 20
4332.075877210243
 30
0.0
  0
VERTEX
  5
421D
330
421A
100
AcDbEntity
  8
0０グルプ-1水色実線
  6
Continuous
 62
     7
100
AcDbVertex
100
AcDb2dVertex
 10
3854.264701428812
 20
4332.075877210243
 30
0.0
  0
SEQEND
  5
421E
330
421A
100
AcDbEntity
  8
0０グルプ-1水色実線
  0
ARC
  5
421F
330
18
100
AcDbEntity
  8
0０グルプ-1水色実線
  6
Continuous
 62
     7
100
AcDbCircle
 10
3818.264701428812
 20
4334.075877210244
 30
0.0
 40
2.0
100
AcDbArc
 50
180.0
 51
270.0
  0
LINE
  5
4220
330
18
100
AcDbEntity
  8
点検口
  6
Continuous
 62
     7
100
AcDbLine
 10
3786.264701428812
 20
4364.075877210331
 30
0.0
 11
3836.264701428812
 21
4364.075877210331
 31
0.0
  0
LINE
  5
4221
330
18
100
AcDbEntity
  8
点検口
  6
Continuous
 62
     7
100
AcDbLine
 10
3786.264701428812
 20
4364.075877210331
 30
0.0
 11
3786.264701428812
 21
4336.075877210244
 31
0.0
  0
LINE
  5
4222
330
18
100
AcDbEntity
  8
0０グルプ-1水色実線
  6
Continuous
 62
     7
100
AcDbLine
 10
3836.264701428812
 20
4394.075877210243
 30
0.0
 11
3836.264701428812
 21
4359.075877210243
 31
0.0
  0
LINE
  5
4223
330
18
100
AcDbEntity
  8
点検口
  6
Continuous
 62
     7
100
AcDbLine
 10
3820.264701428813
 20
4394.075877210243
 30
0.0
 11
3820.264701428813
 21
4372.07587721033
 31
0.0
  0
LINE
  5
4224
330
18
100
AcDbEntity
  8
点検口
  6
Continuous
 62
     7
100
AcDbLine
 10
3824.264701428929
 20
4374.075877210244
 30
0.0
 11
3824.264701428929
 21
4394.075877210243
 31
0.0
  0
ARC
  5
4225
330
18
100
AcDbEntity
  8
点検口
  6
Continuous
 62
     7
100
AcDbCircle
 10
3822.264701428812
 20
4374.075877210244
 30
0.0
 40
2.0
100
AcDbArc
 50
269.9969999994883
 51
0.0034963098052759
  0
ARC
  5
4226
330
18
100
AcDbEntity
  8
点検口
  6
Continuous
 62
     7
100
AcDbCircle
 10
3830.264701428813
 20
4388.075877210243
 30
0.0
 40
2.0
100
AcDbArc
 50
89.99650000162576
 51
179.998999999274
  0
ARC
  5
4227
330
18
100
AcDbEntity
  8
点検口
  6
Continuous
 62
     7
100
AcDbCircle
 10
3830.264701428813
 20
4388.075877210243
 30
0.0
 40
2.0
100
AcDbArc
 50
0.0008706089953721
 51
89.97729999910175
  0
ARC
  5
4228
330
18
100
AcDbEntity
  8
点検口
  6
Continuous
 62
     7
100
AcDbCircle
 10
3830.264701428813
 20
4370.07587721033
 30
0.0
 40
2.0
100
AcDbArc
 50
270.0230000023071
 51
0.0
  0
ARC
  5
4229
330
18
100
AcDbEntity
  8
点検口
  6
Continuous
 62
     7
100
AcDbCircle
 10
3834.264701428813
 20
4366.07587721033
 30
0.0
 40
2.0
100
AcDbArc
 50
269.9969999994883
 51
359.9949999996988
  0
LINE
  5
422A
330
18
100
AcDbEntity
  8
点検口
  6
Continuous
 62
     7
100
AcDbLine
 10
3828.264701428813
 20
4388.075877210243
 30
0.0
 11
3828.264701428813
 21
4368.075877210331
 31
0.0
  0
POLYLINE
  5
422B
330
18
100
AcDbEntity
  8
点検口
  6
Continuous
 62
     7
100
AcDb2dPolyline
 66
     1
 10
0.0
 20
0.0
 30
0.0
  0
VERTEX
  5
422C
330
422B
100
AcDbEntity
  8
点検口
  6
Continuous
 62
     7
100
AcDbVertex
100
AcDb2dVertex
 10
3832.264701428579
 20
4388.075907600231
 30
0.0
  0
VERTEX
  5
422D
330
422B
100
AcDbEntity
  8
点検口
  6
Continuous
 62
     7
100
AcDbVertex
100
AcDb2dVertex
 10
3832.264701428812
 20
4370.07587721033
 30
0.0
  0
VERTEX
  5
422E
330
422B
100
AcDbEntity
  8
点検口
  6
Continuous
 62
     7
100
AcDbVertex
100
AcDb2dVertex
 10
3832.264701428812
 20
4388.075877210243
 30
0.0
  0
SEQEND
  5
422F
330
422B
100
AcDbEntity
  8
点検口
  0
LINE
  5
4230
330
18
100
AcDbEntity
  8
点検口
  6
Continuous
 62
     7
100
AcDbLine
 10
3761.264701428929
 20
4388.82587721033
 30
0.0
 11
3761.264701428929
 21
4380.575877210331
 31
0.0
  0
LINE
  5
4231
330
18
100
AcDbEntity
  8
点検口
  6
Continuous
 62
     7
100
AcDbLine
 10
3760.264701428929
 20
4388.82587721033
 30
0.0
 11
3760.264701428929
 21
4380.575877210331
 31
0.0
  0
ARC
  5
4232
330
18
100
AcDbEntity
  8
点検口
  6
Continuous
 62
     7
100
AcDbCircle
 10
3761.303239002697
 20
4380.275877210342
 30
0.0
 40
1.0
100
AcDbArc
 50
270.0
 51
0.0
  0
LINE
  5
4233
330
18
100
AcDbEntity
  8
点検口
  6
Continuous
 62
     7
100
AcDbLine
 10
3762.303239002696
 20
4392.075877210331
 30
0.0
 11
3762.303239002696
 21
4380.275877210342
 31
0.0
  0
ARC
  5
4234
330
18
100
AcDbEntity
  8
点検口
  6
Continuous
 62
     7
100
AcDbCircle
 10
3764.303239002653
 20
4392.075877210287
 30
0.0
 40
1.999999999955999
100
AcDbArc
 50
89.99999999874935
 51
179.9999999983324
  0
LINE
  5
4235
330
18
100
AcDbEntity
  8
点検口
  6
Continuous
 62
     7
100
AcDbLine
 10
3766.264701428929
 20
4394.075877210243
 30
0.0
 11
3764.303239002697
 21
4394.075877210243
 31
0.0
  0
ARC
  5
4236
330
18
100
AcDbEntity
  8
点検口
  6
Continuous
 62
     7
100
AcDbCircle
 10
3761.303239002697
 20
4380.275877210342
 30
0.0
 40
2.0
100
AcDbArc
 50
270.0
 51
0.0
  0
LINE
  5
4237
330
18
100
AcDbEntity
  8
点検口
  6
Continuous
 62
     7
100
AcDbLine
 10
3763.303239002697
 20
4392.075877210331
 30
0.0
 11
3763.303239002697
 21
4380.275877210342
 31
0.0
  0
ARC
  5
4238
330
18
100
AcDbEntity
  8
点検口
  6
Continuous
 62
     7
100
AcDbCircle
 10
3764.303239002653
 20
4392.075877210287
 30
0.0
 40
0.9999999999559999
100
AcDbArc
 50
89.99999999749871
 51
179.9999999974987
  0
POLYLINE
  5
4239
330
18
100
AcDbEntity
  8
点検口
  6
Continuous
 62
     7
100
AcDb2dPolyline
 66
     1
 10
0.0
 20
0.0
 30
0.0
  0
VERTEX
  5
423A
330
4239
100
AcDbEntity
  8
点検口
  6
Continuous
 62
     7
100
AcDbVertex
100
AcDb2dVertex
 10
3766.264701428929
 20
4394.075877210243
 30
0.0
  0
VERTEX
  5
423B
330
4239
100
AcDbEntity
  8
点検口
  6
Continuous
 62
     7
100
AcDbVertex
100
AcDb2dVertex
 10
3766.264701428929
 20
4393.075877210243
 30
0.0
  0
VERTEX
  5
423C
330
4239
100
AcDbEntity
  8
点検口
  6
Continuous
 62
     7
100
AcDbVertex
100
AcDb2dVertex
 10
3764.303239002697
 20
4393.075877210243
 30
0.0
  0
SEQEND
  5
423D
330
4239
100
AcDbEntity
  8
点検口
  0
ARC
  5
423E
330
18
100
AcDbEntity
  8
0０グルプ-1水色実線
  6
Continuous
 62
     7
100
AcDbCircle
 10
3854.264701428812
 20
4334.075877210244
 30
0.0
 40
2.0
100
AcDbArc
 50
270.0
 51
0.0
  0
LINE
  5
423F
330
18
100
AcDbEntity
  8
点検口
  6
Continuous
 62
     7
100
AcDbLine
 10
3886.264701428812
 20
4359.075877210243
 30
0.0
 11
3886.264701428812
 21
4336.075877210244
 31
0.0
  0
ARC
  5
4240
330
18
100
AcDbEntity
  8
畳
  6
Continuous
100
AcDbCircle
 10
3858.009899747074
 20
4434.336224653599
 30
0.0
 40
19.63636339484871
100
AcDbArc
 50
0.0510559084252
 51
179.9479980449586
  0
LINE
  5
4241
330
18
100
AcDbEntity
  8
畳
  6
Continuous
100
AcDbLine
 10
3720.555527057779
 20
4436.32670720952
 30
0.0
 11
3720.555527057779
 21
4413.635742794927
 31
0.0
  0
ARC
  5
4242
330
18
100
AcDbEntity
  8
畳
  6
Continuous
100
AcDbCircle
 10
3700.919171459118
 20
4434.3522190479
 30
0.0
 40
19.63636339484871
100
AcDbArc
 50
0.0510559084252
 51
179.9479980449586
  0
LINE
  5
4243
330
18
100
AcDbEntity
  8
畳
  6
Continuous
100
AcDbLine
 10
3681.282797507349
 20
4413.635742794927
 30
0.0
 11
3681.282797507349
 21
4434.908675539119
 31
0.0
  0
LINE
  5
4244
330
18
100
AcDbEntity
  8
畳
  6
Continuous
100
AcDbLine
 10
3759.828041703284
 20
4436.333719047371
 30
0.0
 11
3759.828041703284
 21
4413.642754632777
 31
0.0
  0
ARC
  5
4245
330
18
100
AcDbEntity
  8
畳
  6
Continuous
100
AcDbCircle
 10
3779.464397301931
 20
4434.359230885749
 30
0.0
 40
19.63636339484871
100
AcDbArc
 50
0.0520019550413922
 51
179.9489440915748
  0
LINE
  5
4246
330
18
100
AcDbEntity
  8
畳
  6
Continuous
100
AcDbLine
 10
3799.100771253699
 20
4413.642754632777
 30
0.0
 11
3799.100771253699
 21
4434.91568737697
 31
0.0
  0
LINE
  5
4247
330
18
100
AcDbEntity
  8
畳
  6
Continuous
100
AcDbLine
 10
3838.373525795305
 20
4413.619748400628
 30
0.0
 11
3838.373525795305
 21
4434.89268114482
 31
0.0
  0
LINE
  5
4248
330
18
100
AcDbEntity
  8
畳
  6
Continuous
100
AcDbLine
 10
3956.191597671754
 20
4436.31071281522
 30
0.0
 11
3956.191597671754
 21
4413.619748400628
 31
0.0
  0
LINE
  5
4249
330
18
100
AcDbEntity
  8
畳
  6
Continuous
100
AcDbLine
 10
3877.646255345735
 20
4436.31071281522
 30
0.0
 11
3877.646255345735
 21
4413.619748400628
 31
0.0
  0
ARC
  5
424A
330
18
100
AcDbEntity
  8
畳
  6
Continuous
100
AcDbCircle
 10
3936.555242073093
 20
4434.336224653599
 30
0.0
 40
19.63636339484871
100
AcDbArc
 50
0.0510559084252
 51
179.9479980449586
  0
LINE
  5
424B
330
18
100
AcDbEntity
  8
畳
  6
Continuous
100
AcDbLine
 10
3916.918868121324
 20
4413.619748400628
 30
0.0
 11
3916.918868121324
 21
4434.89268114482
 31
0.0
  0
LINE
  5
424C
330
18
100
AcDbEntity
  8
納まり文字
 62
     7
100
AcDbLine
 10
3688.894593794739
 20
4747.134609375114
 30
0.0
 11
3736.138686794872
 21
4747.134609375114
 31
0.0
  0
ARC
  5
4262
330
18
100
AcDbEntity
  8
畳
  6
Continuous
100
AcDbCircle
 10
3975.827836495675
 20
4413.608938172504
 30
0.0
 40
19.63636339484871
100
AcDbArc
 50
179.9479980449586
 51
0.0510559084252
  0
ARC
  5
4263
330
18
100
AcDbEntity
  8
畳
  6
Continuous
100
AcDbCircle
 10
4015.100584399111
 20
4434.336224653599
 30
0.0
 40
19.63636339484871
100
AcDbArc
 50
0.0510559084252
 51
179.9479980449586
  0
LINE
  5
4264
330
18
100
AcDbEntity
  8
畳
  6
Continuous
100
AcDbLine
 10
3995.464210447342
 20
4413.619748400628
 30
0.0
 11
3995.464210447342
 21
4434.89268114482
 31
0.0
  0
LINE
  5
4265
330
18
100
AcDbEntity
  8
畳
  6
Continuous
100
AcDbLine
 10
4034.736939997772
 20
4436.31071281522
 30
0.0
 11
4034.736939997772
 21
4413.619748400628
 31
0.0
  0
ARC
  5
4266
330
18
100
AcDbEntity
  8
畳
  6
Continuous
100
AcDbCircle
 10
4054.373178821694
 20
4413.608938172504
 30
0.0
 40
19.63636339484871
100
AcDbArc
 50
179.9479980449586
 51
0.0510559084252
  0
ARC
  5
4267
330
18
100
AcDbEntity
  8
畳
  6
Continuous
100
AcDbCircle
 10
4093.645926725129
 20
4434.336224653599
 30
0.0
 40
19.63636339484871
100
AcDbArc
 50
0.0510559084252
 51
179.9479980449586
  0
LINE
  5
4268
330
18
100
AcDbEntity
  8
畳
  6
Continuous
100
AcDbLine
 10
4074.00955277336
 20
4413.619748400628
 30
0.0
 11
4074.00955277336
 21
4434.89268114482
 31
0.0
  0
LINE
  5
4269
330
18
100
AcDbEntity
  8
畳
  6
Continuous
100
AcDbLine
 10
4113.28228232379
 20
4436.31071281522
 30
0.0
 11
4113.28228232379
 21
4413.619748400628
 31
0.0
  0
ARC
  5
426A
330
18
100
AcDbEntity
  8
畳
  6
Continuous
100
AcDbCircle
 10
4132.918521147712
 20
4413.608938172504
 30
0.0
 40
19.63636339484871
100
AcDbArc
 50
179.9479980449586
 51
0.0510559084252
  0
ARC
  5
426B
330
18
100
AcDbEntity
  8
畳
  6
Continuous
100
AcDbCircle
 10
4172.191269051149
 20
4434.336224653599
 30
0.0
 40
19.63636339484871
100
AcDbArc
 50
0.0510559084252
 51
179.9479980449586
  0
LINE
  5
426C
330
18
100
AcDbEntity
  8
畳
  6
Continuous
100
AcDbLine
 10
4152.55489509938
 20
4413.619748400628
 30
0.0
 11
4152.55489509938
 21
4434.89268114482
 31
0.0
  0
LINE
  5
426D
330
18
100
AcDbEntity
  8
畳
  6
Continuous
100
AcDbLine
 10
4191.82762464981
 20
4436.31071281522
 30
0.0
 11
4191.82762464981
 21
4413.619748400628
 31
0.0
  0
ARC
  5
426E
330
18
100
AcDbEntity
  8
畳
  6
Continuous
100
AcDbCircle
 10
4211.46386347373
 20
4413.608938172504
 30
0.0
 40
19.63636339484871
100
AcDbArc
 50
179.9479980449586
 51
0.0510559084252
  0
ARC
  5
426F
330
18
100
AcDbEntity
  8
畳
  6
Continuous
100
AcDbCircle
 10
4250.736611377168
 20
4434.336224653599
 30
0.0
 40
19.63636339484871
100
AcDbArc
 50
0.0510559084252
 51
179.9479980449586
  0
LINE
  5
4270
330
18
100
AcDbEntity
  8
畳
  6
Continuous
100
AcDbLine
 10
4231.100237425398
 20
4413.619748400628
 30
0.0
 11
4231.100237425398
 21
4434.89268114482
 31
0.0
  0
LINE
  5
4271
330
18
100
AcDbEntity
  8
畳
  6
Continuous
100
AcDbLine
 10
4270.372966975829
 20
4436.31071281522
 30
0.0
 11
4270.372966975829
 21
4413.619748400628
 31
0.0
  0
ARC
  5
4272
330
18
100
AcDbEntity
  8
畳
  6
Continuous
100
AcDbCircle
 10
4290.00920579975
 20
4413.608938172504
 30
0.0
 40
19.63636339484871
100
AcDbArc
 50
179.9479980449586
 51
0.0510559084252
  0
ARC
  5
4273
330
18
100
AcDbEntity
  8
畳
  6
Continuous
100
AcDbCircle
 10
4329.281953703186
 20
4434.336224653599
 30
0.0
 40
19.63636339484871
100
AcDbArc
 50
0.0510559084252
 51
179.9479980449586
  0
LINE
  5
4274
330
18
100
AcDbEntity
  8
畳
  6
Continuous
100
AcDbLine
 10
4309.645579751417
 20
4413.619748400628
 30
0.0
 11
4309.645579751417
 21
4434.89268114482
 31
0.0
  0
LINE
  5
4275
330
18
100
AcDbEntity
  8
畳
  6
Continuous
100
AcDbLine
 10
4348.918309301847
 20
4436.31071281522
 30
0.0
 11
4348.918309301847
 21
4413.619748400628
 31
0.0
  0
ARC
  5
4276
330
18
100
AcDbEntity
  8
畳
  6
Continuous
100
AcDbCircle
 10
4368.554548125768
 20
4413.608938172504
 30
0.0
 40
19.63636339484871
100
AcDbArc
 50
179.9479980449586
 51
0.0510559084252
  0
ARC
  5
4277
330
18
100
AcDbEntity
  8
畳
  6
Continuous
100
AcDbCircle
 10
4407.827296029205
 20
4434.336224653599
 30
0.0
 40
19.63636339484871
100
AcDbArc
 50
0.0510559084252
 51
179.9479980449586
  0
LINE
  5
4278
330
18
100
AcDbEntity
  8
畳
  6
Continuous
100
AcDbLine
 10
4388.190922077436
 20
4413.619748400628
 30
0.0
 11
4388.190922077436
 21
4434.89268114482
 31
0.0
  0
LINE
  5
4279
330
18
100
AcDbEntity
  8
畳
  6
Continuous
100
AcDbLine
 10
4427.463651627866
 20
4436.31071281522
 30
0.0
 11
4427.463651627866
 21
4413.619748400628
 31
0.0
  0
ARC
  5
427A
330
18
100
AcDbEntity
  8
畳
  6
Continuous
100
AcDbCircle
 10
4447.099890451787
 20
4413.608938172504
 30
0.0
 40
19.63636339484871
100
AcDbArc
 50
179.9479980449586
 51
0.0510559084252
  0
ARC
  5
427B
330
18
100
AcDbEntity
  8
畳
  6
Continuous
100
AcDbCircle
 10
4486.372638355224
 20
4434.336224653599
 30
0.0
 40
19.63636339484871
100
AcDbArc
 50
0.0510559084252
 51
179.9479980449586
  0
LINE
  5
427C
330
18
100
AcDbEntity
  8
畳
  6
Continuous
100
AcDbLine
 10
4466.736264403454
 20
4413.619748400628
 30
0.0
 11
4466.736264403454
 21
4434.89268114482
 31
0.0
  0
LINE
  5
427D
330
18
100
AcDbEntity
  8
畳
  6
Continuous
100
AcDbLine
 10
4506.008993953884
 20
4436.31071281522
 30
0.0
 11
4506.008993953884
 21
4413.619748400628
 31
0.0
  0
ARC
  5
427E
330
18
100
AcDbEntity
  8
畳
  6
Continuous
100
AcDbCircle
 10
4525.645232777806
 20
4413.608938172504
 30
0.0
 40
19.63636339484871
100
AcDbArc
 50
179.9479980449586
 51
0.0510559084252
  0
ARC
  5
427F
330
18
100
AcDbEntity
  8
畳
  6
Continuous
100
AcDbCircle
 10
4564.917980681243
 20
4434.336224653599
 30
0.0
 40
19.63636339484871
100
AcDbArc
 50
0.0510559084252
 51
179.9479980449586
  0
LINE
  5
4280
330
18
100
AcDbEntity
  8
畳
  6
Continuous
100
AcDbLine
 10
4545.281606729473
 20
4413.619748400628
 30
0.0
 11
4545.281606729473
 21
4434.89268114482
 31
0.0
  0
LINE
  5
4281
330
18
100
AcDbEntity
  8
畳
  6
Continuous
100
AcDbLine
 10
4584.554336279903
 20
4436.31071281522
 30
0.0
 11
4584.554336279903
 21
4413.619748400628
 31
0.0
  0
ARC
  5
4282
330
18
100
AcDbEntity
  8
畳
  6
Continuous
100
AcDbCircle
 10
4604.190575103825
 20
4413.608938172504
 30
0.0
 40
19.63636339484871
100
AcDbArc
 50
179.9479980449586
 51
0.0510559084252
  0
LINE
  5
4286
330
18
100
AcDbEntity
  8
畳
  6
Continuous
100
AcDbLine
 10
3092.192701177784
 20
4436.358695998164
 30
0.0
 11
3092.192701177784
 21
4413.667731583557
 31
0.0
  0
ARC
  5
4287
330
18
100
AcDbEntity
  8
畳
  6
Continuous
100
AcDbCircle
 10
3111.828940001706
 20
4413.656921355449
 30
0.0
 40
19.63636339484871
100
AcDbArc
 50
179.9479980449586
 51
0.0510559084252
  0
LINE
  5
4288
330
18
100
AcDbEntity
  8
畳
  6
Continuous
100
AcDbLine
 10
3131.465313953373
 20
4413.667731583557
 30
0.0
 11
3131.465313953373
 21
4434.940664327749
 31
0.0
  0
ARC
  5
4289
330
18
100
AcDbEntity
  8
畳
  6
Continuous
100
AcDbCircle
 10
3151.101687905142
 20
4434.384207836528
 30
0.0
 40
19.63636339484871
100
AcDbArc
 50
0.0510559084252
 51
179.9479980449586
  0
ARC
  5
428D
330
18
100
AcDbEntity
  8
畳
  6
Continuous
100
AcDbCircle
 10
3072.556345579124
 20
4434.384207836543
 30
0.0
 40
19.63636339484871
100
AcDbArc
 50
0.0510559084252
 51
150.7034063104793
  0
LINE
  5
D3CD
330
18
100
AcDbEntity
  8
WAKU
100
AcDbLine
 10
2884.985198394827
 20
3667.665609795282
 30
0.0
 11
4884.985198394827
 21
3667.665609795282
 31
0.0
  0
LINE
  5
D3CE
330
18
100
AcDbEntity
  8
WAKU
100
AcDbLine
 10
2884.985198394827
 20
5167.665609795282
 30
0.0
 11
4884.985198394827
 21
5167.665609795282
 31
0.0
  0
LINE
  5
D3CF
330
18
100
AcDbEntity
  8
WAKU
100
AcDbLine
 10
2884.985198394827
 20
4967.665609795282
 30
0.0
 11
4884.985198394827
 21
4967.665609795282
 31
0.0
  0
LINE
  5
D599
330
18
100
AcDbEntity
  8
WAKU
100
AcDbLine
 10
2884.985198394827
 20
5167.665609795282
 30
0.0
 11
2884.985198394827
 21
3667.665609795282
 31
0.0
  0
TEXT
  5
DF1E
330
18
100
AcDbEntity
  8
納まり文字
100
AcDbText
 10
4311.801727415276
 20
4674.539955357188
 30
0.0
 40
30.0
  1
畳
  7
ＭＳ ゴシック
 11
4311.801727415276
 21
4689.539955357187
 31
0.0
100
AcDbText
 73
     2
  0
LINE
  5
DF1F
330
18
100
AcDbEntity
  8
納まり文字
 62
     7
100
AcDbLine
 10
4274.301727415218
 20
4689.539955357187
 30
0.0
 11
4304.301727415276
 21
4689.539955357187
 31
0.0
  0
LINE
  5
DF20
330
18
100
AcDbEntity
  8
納まり文字
 62
     7
100
AcDbLine
 10
4153.391232953969
 20
4365.4988256485
 30
0.0
 11
4274.301727415218
 21
4689.539955357187
 31
0.0
  0
TEXT
  5
DF21
330
18
100
AcDbEntity
  8
納まり文字
100
AcDbText
 10
4280.697759293025
 20
4591.08205528078
 30
0.0
 40
30.0
  1
捨板合板
  7
ＭＳ ゴシック
 11
4280.697759293025
 21
4606.082055280779
 31
0.0
100
AcDbText
 73
     2
  0
LINE
  5
DF22
330
18
100
AcDbEntity
  8
納まり文字
 62
     7
100
AcDbLine
 10
4243.197759292967
 20
4606.082055280779
 30
0.0
 11
4273.197759293026
 21
4606.082055280779
 31
0.0
  0
TEXT
  5
DF23
330
18
100
AcDbEntity
  8
納まり文字
100
AcDbText
 10
4251.371171486683
 20
4512.063409432125
 30
0.0
 40
30.0
  1
パーティクルボード　t=20
  7
ＭＳ ゴシック
 11
4251.371171486683
 21
4527.063409432125
 31
0.0
100
AcDbText
 73
     2
  0
LINE
  5
DF24
330
18
100
AcDbEntity
  8
納まり文字
 62
     7
100
AcDbLine
 10
4213.871171486625
 20
4527.063409432125
 30
0.0
 11
4243.871171486683
 21
4527.063409432125
 31
0.0
  0
CIRCLE
  5
DF25
330
18
100
AcDbEntity
  8
納まり文字
 62
     7
100
AcDbCircle
 10
4175.354936481232
 20
4423.531750157576
 30
0.0
 40
3.0
  0
CIRCLE
  5
DF26
330
18
100
AcDbEntity
  8
納まり文字
 62
     7
100
AcDbCircle
 10
4162.690408267302
 20
4388.684771649146
 30
0.0
 40
3.0
  0
CIRCLE
  5
DF27
330
18
100
AcDbEntity
  8
納まり文字
 62
     7
100
AcDbCircle
 10
4154.605467219851
 20
4369.979298151967
 30
0.0
 40
3.0
  0
VIEWPORT
  5
1B7
102
{ACAD_XDICTIONARY
360
DFCF
102
}
330
15
100
AcDbEntity
 67
     1
  8
0
100
AcDbViewport
 10
302.6511627906977
 20
148.5
 30
0.0
 40
605.3023255813954
 41
297.0
 68
     1
 69
     1
 12
302.6511627906977
 22
148.5
 13
0.0
 23
0.0
 14
10.0
 24
10.0
 15
10.0
 25
10.0
 16
0.0
 26
0.0
 36
1.0
 17
0.0
 27
0.0
 37
0.0
 42
50.0
 43
0.0
 44
0.0
 45
297.0
 50
0.0
 51
0.0
 72
   100
 90
    32800
  1

281
     0
 71
     1
 74
     0
110
0.0
120
0.0
130
0.0
111
1.0
121
0.0
131
0.0
112
0.0
122
1.0
132
0.0
 79
     0
146
0.0
  0
ENDSEC
  0
SECTION
  2
OBJECTS
  0
DICTIONARY
  5
C
330
0
100
AcDbDictionary
281
     1
  3
ACAD_2007HEADERVARS_RT
350
DFC4
  3
ACAD_CIP_PREVIOUS_PRODUCT_INFO
350
DEC0
  3
ACAD_COLOR
350
4F2
  3
ACAD_DETAILVIEWSTYLE
350
DEB4
  3
ACAD_GROUP
350
D
  3
ACAD_LAYOUT
350
43F
  3
ACAD_MATERIAL
350
4F1
  3
ACAD_MLEADERSTYLE
350
DEB0
  3
ACAD_MLINESTYLE
350
1B
  3
ACAD_PLOTSETTINGS
350
440
  3
ACAD_PLOTSTYLENAME
350
43D
  3
ACAD_SCALELIST
350
DE9E
  3
ACAD_SECTIONVIEWSTYLE
350
DEB2
  3
ACAD_TABLESTYLE
350
DE9C
  3
ACAD_VISUALSTYLE
350
DE83
  3
ACDB_RECOMPOSE_DATA
350
DFC2
  3
ACDBVARIABLEDICTIONARY
350
2ED
  3
AcDsDecomposeData
350
DFCC
  3
CONTENTDICTIONARY
350
1B2
  3
DRAWINGVARIABLESDICT
350
227
  3
DWGPROPS
350
DFC3
  0
DICTIONARY
  5
4E4
330
2
100
AcDbDictionary
280
     1
281
     1
  3
ACAD_LAYERSTATES
360
4E5
  0
DICTIONARY
  5
DF53
330
E
100
AcDbDictionary
280
     1
281
     1
  3
ADSK_XREC_LAYER_RECONCILED
360
DF54
  0
DICTIONARY
  5
DF55
330
6B
100
AcDbDictionary
280
     1
281
     1
  3
ADSK_XREC_LAYER_RECONCILED
360
DF56
  0
DICTIONARY
  5
DF57
330
5F7
100
AcDbDictionary
280
     1
281
     1
  3
ADSK_XREC_LAYER_RECONCILED
360
DF58
  0
DICTIONARY
  5
5F9
330
5F8
100
AcDbDictionary
280
     1
281
     1
  3
ADSK_XREC_LAYER_RECONCILED
360
DF59
  0
DICTIONARY
  5
5FB
330
5FA
100
AcDbDictionary
280
     1
281
     1
  3
ADSK_XREC_LAYER_RECONCILED
360
DF5A
  0
DICTIONARY
  5
5FD
330
5FC
100
AcDbDictionary
280
     1
281
     1
  3
ADSK_XREC_LAYER_RECONCILED
360
DF5B
  0
DICTIONARY
  5
5FF
330
5FE
100
AcDbDictionary
280
     1
281
     1
  3
ADSK_XREC_LAYER_RECONCILED
360
DF5C
  0
DICTIONARY
  5
601
330
600
100
AcDbDictionary
280
     1
281
     1
  3
ADSK_XREC_LAYER_RECONCILED
360
DF5D
  0
DICTIONARY
  5
603
330
602
100
AcDbDictionary
280
     1
281
     1
  3
ADSK_XREC_LAYER_RECONCILED
360
604
  0
DICTIONARY
  5
1784
330
1783
100
AcDbDictionary
280
     1
281
     1
  3
ADSK_XREC_LAYER_RECONCILED
360
DF5E
  0
DICTIONARY
  5
DF5F
330
1785
100
AcDbDictionary
280
     1
281
     1
  3
ADSK_XREC_LAYER_RECONCILED
360
DF60
  0
DICTIONARY
  5
DF61
330
1786
100
AcDbDictionary
280
     1
281
     1
  3
ADSK_XREC_LAYER_RECONCILED
360
DF62
  0
DICTIONARY
  5
DF63
330
3D51
100
AcDbDictionary
280
     1
281
     1
  3
ADSK_XREC_LAYER_RECONCILED
360
DF64
  0
DICTIONARY
  5
3E12
330
3E11
100
AcDbDictionary
280
     1
281
     1
  3
ADSK_XREC_LAYER_RECONCILED
360
3E13
  0
DICTIONARY
  5
DF65
330
3E14
100
AcDbDictionary
280
     1
281
     1
  3
ADSK_XREC_LAYER_RECONCILED
360
DF66
  0
DICTIONARY
  5
DF67
330
3E15
100
AcDbDictionary
280
     1
281
     1
  3
ADSK_XREC_LAYER_RECONCILED
360
DF68
  0
DICTIONARY
  5
8CA2
330
8CA1
100
AcDbDictionary
280
     1
281
     1
  3
ADSK_XREC_LAYER_RECONCILED
360
8CA3
  0
DICTIONARY
  5
477
330
18
100
AcDbDictionary
280
     1
281
     1
  3
ACAD_LAYOUTSELFREF
360
4BE
  0
DICTIONARY
  5
475
330
15
100
AcDbDictionary
280
     1
281
     1
  3
ACAD_LAYOUTSELFREF
360
4BD
  0
DICTIONARY
  5
DFCF
330
1B7
100
AcDbDictionary
280
     1
281
     1
  3
ACAD_XREC_ROUNDTRIP
360
DFD0
  0
DICTIONARY
  5
DFC4
102
{ACAD_REACTORS
330
C
102
}
330
C
100
AcDbDictionary
281
     1
  3
DIMFXL
350
DFC5
  3
DIMJOGANG
350
DFC6
  0
XRECORD
  5
DEC0
102
{ACAD_REACTORS
330
C
102
}
330
C
100
AcDbXrecord
280
     1
300
ACDLT
300
2017
300
ACDLT_F_S
  0
DICTIONARY
  5
4F2
102
{ACAD_REACTORS
330
C
102
}
330
C
100
AcDbDictionary
281
     1
  0
DICTIONARY
  5
DEB4
102
{ACAD_REACTORS
330
C
102
}
330
C
100
AcDbDictionary
281
     1
  3
Metric50
350
DEB5
  0
DICTIONARY
  5
D
102
{ACAD_REACTORS
330
C
102
}
330
C
100
AcDbDictionary
281
     1
  0
DICTIONARY
  5
43F
102
{ACAD_REACTORS
330
C
102
}
330
C
100
AcDbDictionary
281
     1
  3
Model
350
441
  3
ﾚｲｱｳﾄ1
350
442
  0
DICTIONARY
  5
4F1
102
{ACAD_REACTORS
330
C
102
}
330
C
100
AcDbDictionary
281
     1
  3
ByBlock
350
DE73
  3
ByLayer
350
DE6B
  3
Global
350
DE7B
  0
DICTIONARY
  5
DEB0
102
{ACAD_REACTORS
330
C
102
}
330
C
100
AcDbDictionary
281
     1
  3
Standard
350
DEB1
  0
DICTIONARY
  5
1B
102
{ACAD_REACTORS
330
C
102
}
330
C
100
AcDbDictionary
281
     1
  3
STANDARD
350
1C
  0
DICTIONARY
  5
440
102
{ACAD_REACTORS
330
C
102
}
330
C
100
AcDbDictionary
281
     1
  0
ACDBDICTIONARYWDFLT
  5
43D
102
{ACAD_REACTORS
330
C
102
}
330
C
100
AcDbDictionary
281
     1
  3
Normal
350
43E
100
AcDbDictionaryWithDefault
340
43E
  0
DICTIONARY
  5
DE9E
102
{ACAD_REACTORS
330
C
102
}
330
C
100
AcDbDictionary
281
     1
  3
A0
350
DE9F
  3
A1
350
DEA0
  3
A2
350
DEA1
  3
A3
350
DEA2
  3
A4
350
DEA3
  3
A5
350
DEA4
  3
A6
350
DEA5
  3
A7
350
DEA6
  3
A8
350
DEA7
  3
A9
350
DEA8
  3
B0
350
DEA9
  3
B1
350
DEAA
  3
B2
350
DEAB
  3
B3
350
DEAC
  3
B4
350
DEAD
  3
B5
350
DEAE
  3
B6
350
DEAF
  0
DICTIONARY
  5
DEB2
102
{ACAD_REACTORS
330
C
102
}
330
C
100
AcDbDictionary
281
     1
  3
Metric50
350
DEB3
  0
DICTIONARY
  5
DE9C
102
{ACAD_REACTORS
330
C
102
}
330
C
100
AcDbDictionary
281
     1
  3
Standard
350
DE9D
  0
DICTIONARY
  5
DE83
102
{ACAD_REACTORS
330
C
102
}
330
C
100
AcDbDictionary
281
     1
  3
2dWireframe
350
DE89
  3
Basic
350
DE88
  3
Brighten
350
DE8F
  3
ColorChange
350
DE93
  3
Conceptual
350
DE8C
  3
Dim
350
DE8E
  3
EdgeColorOff
350
DE9B
  3
Facepattern
350
DE92
  3
Flat
350
DE84
  3
FlatWithEdges
350
DE85
  3
Gouraud
350
DE86
  3
GouraudWithEdges
350
DE87
  3
Hidden
350
DE8B
  3
JitterOff
350
DE99
  3
Linepattern
350
DE91
  3
OverhangOff
350
DE9A
  3
Realistic
350
DE8D
  3
Shaded
350
DE98
  3
Shaded with edges
350
DE97
  3
Shades of Gray
350
DE94
  3
Sketchy
350
DE95
  3
Thicken
350
DE90
  3
Wireframe
350
DE8A
  3
X-Ray
350
DE96
  0
XRECORD
  5
DFC2
102
{ACAD_REACTORS
330
C
102
}
330
C
100
AcDbXrecord
280
     1
 90
        1
330
DE9D
  0
DICTIONARY
  5
2ED
102
{ACAD_REACTORS
330
C
102
}
330
C
100
AcDbDictionary
281
     1
  3
CANNOSCALE
350
DFBD
  3
CMLEADERSTYLE
350
DFBA
  3
CTABLESTYLE
350
DFB9
  3
CVIEWDETAILSTYLE
350
DFBB
  3
CVIEWSECTIONSTYLE
350
DFBC
  3
DIMASSOC
350
493
  3
INDEXCTL
350
DFBE
  3
PROJECTNAME
350
518
  3
SORTENTS
350
2EE
  3
XCLIPFRAME
350
DFBF
  0
DICTIONARY
  5
DFCC
102
{ACAD_REACTORS
330
C
102
}
330
C
100
AcDbDictionary
281
     1
  3
AcDsRecords
350
DFCE
  3
AcDsSchemas
350
DFCD
1001
ACAD
1070
     2
  0
DICTIONARY
  5
1B2
102
{ACAD_REACTORS
330
C
102
}
330
C
100
AcDbDictionary
281
     1
1001
CONTENTTABDATA
1070
    14
1000
三:-)
1000
E:\Acltpart
1070
     1
1070
     0
1070
     1
1000
GE
1000
E:\Acltpart\GENERAL
1070
     1
1070
     0
1070
     1
1000
機
1000
E:\Acltpart\kizai
1070
     1
1070
     0
1070
     1
1000
IIK
1000
E:\Acltpart\kizai\IIK
1070
     1
1070
     0
1070
     1
1000
型鋼
1000
E:\Acltpart\kizai\KOZAI
1070
     1
1070
     0
1070
     1
1000
架
1000
E:\Acltpart\KSETUZU
1070
     1
1070
     0
1070
     1
1000
ca
1000
E:\Acltpart\KSETUZU\CABLE-C
1070
     1
1070
     0
1070
     1
1000
送
1000
E:\Acltpart\KSETUZU\OKURI
1070
     1
1070
     0
1070
     1
1000
CC
1000
E:\Acltpart\KSETUZU\CC
1070
     1
1070
     0
1070
     1
1000
TC
1000
E:\Acltpart\KSETUZU\TC
1070
     1
1070
     0
1070
     1
1000
RC
1000
E:\Acltpart\KSETUZU\RC
1070
     1
1070
     0
1070
     1
1000
FC
1000
E:\Acltpart\KSETUZU\FC
1070
     1
1070
     0
1070
     1
1000
Tr
1000
E:\Acltpart\KSETUZU\Trailer&Truck
1070
     1
1070
     0
1070
     1
1000
〒
1000
E:\post
1070
     1
1070
     0
1070
     1
1001
CONTENTCURRENTTAB
1070
     0
  0
DICTIONARY
  5
227
102
{ACAD_REACTORS
330
C
102
}
330
C
100
AcDbDictionary
281
     1
1001
DRAWINGVARIABLESXDATA
1000
POLARMODE
1000
1
1000
POLARANG
1000
0.261799387799149410000000
  0
XRECORD
  5
DFC3
102
{ACAD_REACTORS
330
C
102
}
330
C
100
AcDbXrecord
280
     1
  1
DWGPROPS COOKIE
  2

  3

  4

  6

  7

  8
康裕
  9

300
=
301
=
302
=
303
=
304
=
305
=
306
=
307
=
308
=
309
=
 40
0.408077337962963
 41
2451345.651469907
 42
2457883.487662037
  1

 90
        0
  0
DICTIONARY
  5
4E5
102
{ACAD_REACTORS
330
4E4
102
}
330
4E4
100
AcDbDictionary
281
     1
  0
XRECORD
  5
DF54
102
{ACAD_REACTORS
330
DF53
102
}
330
DF53
100
AcDbXrecord
280
     1
290
     1
  0
XRECORD
  5
DF56
102
{ACAD_REACTORS
330
DF55
102
}
330
DF55
100
AcDbXrecord
280
     1
290
     1
  0
XRECORD
  5
DF58
102
{ACAD_REACTORS
330
DF57
102
}
330
DF57
100
AcDbXrecord
280
     1
290
     1
  0
XRECORD
  5
DF59
102
{ACAD_REACTORS
330
5F9
102
}
330
5F9
100
AcDbXrecord
280
     1
290
     1
  0
XRECORD
  5
DF5A
102
{ACAD_REACTORS
330
5FB
102
}
330
5FB
100
AcDbXrecord
280
     1
290
     1
  0
XRECORD
  5
DF5B
102
{ACAD_REACTORS
330
5FD
102
}
330
5FD
100
AcDbXrecord
280
     1
290
     1
  0
XRECORD
  5
DF5C
102
{ACAD_REACTORS
330
5FF
102
}
330
5FF
100
AcDbXrecord
280
     1
290
     1
  0
XRECORD
  5
DF5D
102
{ACAD_REACTORS
330
601
102
}
330
601
100
AcDbXrecord
280
     1
290
     1
  0
XRECORD
  5
604
102
{ACAD_REACTORS
330
603
102
}
330
603
100
AcDbXrecord
280
     1
290
     1
  0
XRECORD
  5
DF5E
102
{ACAD_REACTORS
330
1784
102
}
330
1784
100
AcDbXrecord
280
     1
290
     1
  0
XRECORD
  5
DF60
102
{ACAD_REACTORS
330
DF5F
102
}
330
DF5F
100
AcDbXrecord
280
     1
290
     1
  0
XRECORD
  5
DF62
102
{ACAD_REACTORS
330
DF61
102
}
330
DF61
100
AcDbXrecord
280
     1
290
     1
  0
XRECORD
  5
DF64
102
{ACAD_REACTORS
330
DF63
102
}
330
DF63
100
AcDbXrecord
280
     1
290
     1
  0
XRECORD
  5
3E13
102
{ACAD_REACTORS
330
3E12
102
}
330
3E12
100
AcDbXrecord
280
     1
290
     1
  0
XRECORD
  5
DF66
102
{ACAD_REACTORS
330
DF65
102
}
330
DF65
100
AcDbXrecord
280
     1
290
     1
  0
XRECORD
  5
DF68
102
{ACAD_REACTORS
330
DF67
102
}
330
DF67
100
AcDbXrecord
280
     1
290
     1
  0
XRECORD
  5
8CA3
102
{ACAD_REACTORS
330
8CA2
102
}
330
8CA2
100
AcDbXrecord
280
     1
290
     1
  0
XRECORD
  5
4BE
102
{ACAD_REACTORS
330
477
102
}
330
477
100
AcDbXrecord
280
     1
340
18
  0
XRECORD
  5
4BD
102
{ACAD_REACTORS
330
475
102
}
330
475
100
AcDbXrecord
280
     1
340
15
  0
XRECORD
  5
DFD0
102
{ACAD_REACTORS
330
DFCF
102
}
330
DFCF
100
AcDbXrecord
280
     1
102
SHADEPLOT
 70
     0
  0
XRECORD
  5
DFC5
102
{ACAD_REACTORS
330
DFC4
102
}
330
DFC4
100
AcDbXrecord
280
     1
 40
0.0
  0
XRECORD
  5
DFC6
102
{ACAD_REACTORS
330
DFC4
102
}
330
DFC4
100
AcDbXrecord
280
     1
 40
1.570796326794896
  0
ACDBDETAILVIEWSTYLE
  5
DEB5
102
{ACAD_XDICTIONARY
360
E00E
102
}
102
{ACAD_REACTORS
330
DEB4
102
}
330
DEB4
100
AcDbModelDocViewStyle
 70
     0
  3
Metric50
290
     0
100
AcDbDetailViewStyle
 70
     0
 71
     0
 90
        3
 71
     1
340
F
 40
5.0
340
0
 40
5.0
300

 40
0.0
280
     1
 71
     2
340
14
 90
       25
 71
     3
340
F
 40
5.0
 90
        0
 40
15.0
 90
        1
300
%<\AcVar ViewDetailId>% (%<\AcVar ViewScale \f "%sn">%)
 71
     4
340
14
 90
       25
340
14
 90
       25
280
     0
  0
LAYOUT
  5
441
102
{ACAD_XDICTIONARY
360
DFD1
102
}
102
{ACAD_REACTORS
330
43F
102
}
330
43F
100
AcDbPlotSettings
  1

  2
DocuCom PDF Driver
  4
A4
  6

 40
3.174999952316284
 41
3.174999952316284
 42
3.175003051757812
 43
3.17498779296875
 44
209.9733276367187
 45
296.9683227539062
 46
0.0
 47
53.53
 48
-3634.187988249352
 49
-1681.076921770407
140
5360.740837565099
141
8297.541764747657
142
1.0
143
49.00528318413628
 70
 11956
 72
     1
 73
     1
 74
     4
  7
monochrome.ctb
 75
     0
147
0.0204059630926429
148
3634.187988249352
149
1681.076921770407
100
AcDbLayout
  1
Model
 70
     1
 71
     0
 10
0.0
 20
0.0
 11
12.0
 21
9.0
 12
0.0
 22
0.0
 32
0.0
 14
0.0
 24
0.0
 34
0.0
 15
0.0
 25
0.0
 35
0.0
146
0.0
 13
0.0
 23
0.0
 33
0.0
 16
1.0
 26
0.0
 36
0.0
 17
0.0
 27
1.0
 37
0.0
 76
     0
330
18
331
DE69
  0
LAYOUT
  5
442
102
{ACAD_XDICTIONARY
360
DFD3
102
}
102
{ACAD_REACTORS
330
43F
102
}
330
43F
100
AcDbPlotSettings
  1

  2
C:\Program Files\AutoCAD LT 2002\plotters\DWF ePlot (optimized for plotting).pc3
  4

  6

 40
0.0
 41
0.0
 42
0.0
 43
0.0
 44
0.0
 45
0.0
 46
0.0
 47
0.0
 48
0.0
 49
0.0
140
0.0
141
0.0
142
1.0
143
1.0
 70
   688
 72
     0
 73
     0
 74
     5
  7

 75
    16
147
1.0
148
0.0
149
0.0
100
AcDbLayout
  1
ﾚｲｱｳﾄ1
 70
     0
 71
     1
 10
0.0
 20
0.0
 11
420.0
 21
297.0
 12
0.0
 22
0.0
 32
0.0
 14
1.000000000000000E+20
 24
1.000000000000000E+20
 34
1.000000000000000E+20
 15
-1.000000000000000E+20
 25
-1.000000000000000E+20
 35
-1.000000000000000E+20
146
0.0
 13
0.0
 23
0.0
 33
0.0
 16
1.0
 26
0.0
 36
0.0
 17
0.0
 27
1.0
 37
0.0
 76
     0
330
15
331
1B7
  0
MATERIAL
  5
DE73
102
{ACAD_XDICTIONARY
360
DE74
102
}
102
{ACAD_REACTORS
330
4F1
102
}
330
4F1
100
AcDbMaterial
  1
ByBlock
 72
     0
 43
0.0208333333333333
 43
0.0
 43
0.0
 43
0.0
 43
0.0
 43
0.0208333333333333
 43
0.0
 43
0.0
 43
0.0
 43
0.0
 43
1.0
 43
0.0
 43
0.0
 43
0.0
 43
0.0
 43
1.0
 77
     0
 47
0.0208333333333333
 47
0.0
 47
0.0
 47
0.0
 47
0.0
 47
0.0208333333333333
 47
0.0
 47
0.0
 47
0.0
 47
0.0
 47
1.0
 47
0.0
 47
0.0
 47
0.0
 47
0.0
 47
1.0
171
     0
 49
0.0208333333333333
 49
0.0
 49
0.0
 49
0.0
 49
0.0
 49
0.0208333333333333
 49
0.0
 49
0.0
 49
0.0
 49
0.0
 49
1.0
 49
0.0
 49
0.0
 49
0.0
 49
0.0
 49
1.0
175
     0
142
0.0208333333333333
142
0.0
142
0.0
142
0.0
142
0.0
142
0.0208333333333333
142
0.0
142
0.0
142
0.0
142
0.0
142
1.0
142
0.0
142
0.0
142
0.0
142
0.0
142
1.0
179
     0
144
0.0208333333333333
144
0.0
144
0.0
144
0.0
144
0.0
144
0.0208333333333333
144
0.0
144
0.0
144
0.0
144
0.0
144
1.0
144
0.0
144
0.0
144
0.0
144
0.0
144
1.0
147
0.0208333333333333
147
0.0
147
0.0
147
0.0
147
0.0
147
0.0208333333333333
147
0.0
147
0.0
147
0.0
147
0.0
147
1.0
147
0.0
147
0.0
147
0.0
147
0.0
147
1.0
  0
MATERIAL
  5
DE6B
102
{ACAD_XDICTIONARY
360
DE6C
102
}
102
{ACAD_REACTORS
330
4F1
102
}
330
4F1
100
AcDbMaterial
  1
ByLayer
 72
     0
 43
0.0208333333333333
 43
0.0
 43
0.0
 43
0.0
 43
0.0
 43
0.0208333333333333
 43
0.0
 43
0.0
 43
0.0
 43
0.0
 43
1.0
 43
0.0
 43
0.0
 43
0.0
 43
0.0
 43
1.0
 77
     0
 47
0.0208333333333333
 47
0.0
 47
0.0
 47
0.0
 47
0.0
 47
0.0208333333333333
 47
0.0
 47
0.0
 47
0.0
 47
0.0
 47
1.0
 47
0.0
 47
0.0
 47
0.0
 47
0.0
 47
1.0
171
     0
 49
0.0208333333333333
 49
0.0
 49
0.0
 49
0.0
 49
0.0
 49
0.0208333333333333
 49
0.0
 49
0.0
 49
0.0
 49
0.0
 49
1.0
 49
0.0
 49
0.0
 49
0.0
 49
0.0
 49
1.0
175
     0
142
0.0208333333333333
142
0.0
142
0.0
142
0.0
142
0.0
142
0.0208333333333333
142
0.0
142
0.0
142
0.0
142
0.0
142
1.0
142
0.0
142
0.0
142
0.0
142
0.0
142
1.0
179
     0
144
0.0208333333333333
144
0.0
144
0.0
144
0.0
144
0.0
144
0.0208333333333333
144
0.0
144
0.0
144
0.0
144
0.0
144
1.0
144
0.0
144
0.0
144
0.0
144
0.0
144
1.0
147
0.0208333333333333
147
0.0
147
0.0
147
0.0
147
0.0
147
0.0208333333333333
147
0.0
147
0.0
147
0.0
147
0.0
147
1.0
147
0.0
147
0.0
147
0.0
147
0.0
147
1.0
  0
MATERIAL
  5
DE7B
102
{ACAD_XDICTIONARY
360
DE7C
102
}
102
{ACAD_REACTORS
330
4F1
102
}
330
4F1
100
AcDbMaterial
  1
Global
 72
     0
 43
0.0208333333333333
 43
0.0
 43
0.0
 43
0.0
 43
0.0
 43
0.0208333333333333
 43
0.0
 43
0.0
 43
0.0
 43
0.0
 43
1.0
 43
0.0
 43
0.0
 43
0.0
 43
0.0
 43
1.0
 77
     0
 47
0.0208333333333333
 47
0.0
 47
0.0
 47
0.0
 47
0.0
 47
0.0208333333333333
 47
0.0
 47
0.0
 47
0.0
 47
0.0
 47
1.0
 47
0.0
 47
0.0
 47
0.0
 47
0.0
 47
1.0
171
     0
 49
0.0208333333333333
 49
0.0
 49
0.0
 49
0.0
 49
0.0
 49
0.0208333333333333
 49
0.0
 49
0.0
 49
0.0
 49
0.0
 49
1.0
 49
0.0
 49
0.0
 49
0.0
 49
0.0
 49
1.0
175
     0
142
0.0208333333333333
142
0.0
142
0.0
142
0.0
142
0.0
142
0.0208333333333333
142
0.0
142
0.0
142
0.0
142
0.0
142
1.0
142
0.0
142
0.0
142
0.0
142
0.0
142
1.0
179
     0
144
0.0208333333333333
144
0.0
144
0.0
144
0.0
144
0.0
144
0.0208333333333333
144
0.0
144
0.0
144
0.0
144
0.0
144
1.0
144
0.0
144
0.0
144
0.0
144
0.0
144
1.0
147
0.0208333333333333
147
0.0
147
0.0
147
0.0
147
0.0
147
0.0208333333333333
147
0.0
147
0.0
147
0.0
147
0.0
147
1.0
147
0.0
147
0.0
147
0.0
147
0.0
147
1.0
  0
MLEADERSTYLE
  5
DEB1
102
{ACAD_XDICTIONARY
360
E00A
102
}
102
{ACAD_REACTORS
330
DEB0
102
}
330
DEB0
100
AcDbMLeaderStyle
170
     2
171
     1
172
     0
 90
        2
 40
0.0
 41
0.0
173
     1
 91
-1056964608
340
12
 92
       -2
290
     1
 42
2.0
291
     1
 43
0.36
  3
Standard
 44
4.0
300

342
F
174
     1
178
     6
175
     1
176
     0
 93
-1056964608
 45
4.0
292
     0
297
     0
 46
4.0
 94
-1056964608
 47
1.0
 49
1.0
140
1.0
293
     1
141
0.0
294
     1
177
     0
142
1.0
295
     0
296
     0
143
0.125
1001
ACAD_MLEADERVER
1070
     2
  0
MLINESTYLE
  5
1C
102
{ACAD_REACTORS
330
1B
102
}
330
1B
100
AcDbMlineStyle
  2
STANDARD
 70
     0
  3

 62
   256
 51
90.0
 52
90.0
 71
     2
 49
0.5
 62
   256
  6
BYLAYER
 49
-0.5
 62
   256
  6
BYLAYER
  0
ACDBPLACEHOLDER
  5
43E
102
{ACAD_REACTORS
330
43D
102
}
330
43D
  0
SCALE
  5
DE9F
102
{ACAD_REACTORS
330
DE9E
102
}
330
DE9E
100
AcDbScale
 70
     0
300
1:1
140
1.0
141
1.0
290
     1
  0
SCALE
  5
DEA0
102
{ACAD_REACTORS
330
DE9E
102
}
330
DE9E
100
AcDbScale
 70
     0
300
1:2
140
1.0
141
2.0
290
     0
  0
SCALE
  5
DEA1
102
{ACAD_REACTORS
330
DE9E
102
}
330
DE9E
100
AcDbScale
 70
     0
300
1:4
140
1.0
141
4.0
290
     0
  0
SCALE
  5
DEA2
102
{ACAD_REACTORS
330
DE9E
102
}
330
DE9E
100
AcDbScale
 70
     0
300
1:5
140
1.0
141
5.0
290
     0
  0
SCALE
  5
DEA3
102
{ACAD_REACTORS
330
DE9E
102
}
330
DE9E
100
AcDbScale
 70
     0
300
1:8
140
1.0
141
8.0
290
     0
  0
SCALE
  5
DEA4
102
{ACAD_REACTORS
330
DE9E
102
}
330
DE9E
100
AcDbScale
 70
     0
300
1:10
140
1.0
141
10.0
290
     0
  0
SCALE
  5
DEA5
102
{ACAD_REACTORS
330
DE9E
102
}
330
DE9E
100
AcDbScale
 70
     0
300
1:16
140
1.0
141
16.0
290
     0
  0
SCALE
  5
DEA6
102
{ACAD_REACTORS
330
DE9E
102
}
330
DE9E
100
AcDbScale
 70
     0
300
1:20
140
1.0
141
20.0
290
     0
  0
SCALE
  5
DEA7
102
{ACAD_REACTORS
330
DE9E
102
}
330
DE9E
100
AcDbScale
 70
     0
300
1:30
140
1.0
141
30.0
290
     0
  0
SCALE
  5
DEA8
102
{ACAD_REACTORS
330
DE9E
102
}
330
DE9E
100
AcDbScale
 70
     0
300
1:40
140
1.0
141
40.0
290
     0
  0
SCALE
  5
DEA9
102
{ACAD_REACTORS
330
DE9E
102
}
330
DE9E
100
AcDbScale
 70
     0
300
1:50
140
1.0
141
50.0
290
     0
  0
SCALE
  5
DEAA
102
{ACAD_REACTORS
330
DE9E
102
}
330
DE9E
100
AcDbScale
 70
     0
300
1:100
140
1.0
141
100.0
290
     0
  0
SCALE
  5
DEAB
102
{ACAD_REACTORS
330
DE9E
102
}
330
DE9E
100
AcDbScale
 70
     0
300
2:1
140
2.0
141
1.0
290
     0
  0
SCALE
  5
DEAC
102
{ACAD_REACTORS
330
DE9E
102
}
330
DE9E
100
AcDbScale
 70
     0
300
4:1
140
4.0
141
1.0
290
     0
  0
SCALE
  5
DEAD
102
{ACAD_REACTORS
330
DE9E
102
}
330
DE9E
100
AcDbScale
 70
     0
300
8:1
140
8.0
141
1.0
290
     0
  0
SCALE
  5
DEAE
102
{ACAD_REACTORS
330
DE9E
102
}
330
DE9E
100
AcDbScale
 70
     0
300
10:1
140
10.0
141
1.0
290
     0
  0
SCALE
  5
DEAF
102
{ACAD_REACTORS
330
DE9E
102
}
330
DE9E
100
AcDbScale
 70
     0
300
100:1
140
100.0
141
1.0
290
     0
  0
ACDBSECTIONVIEWSTYLE
  5
DEB3
102
{ACAD_XDICTIONARY
360
E00C
102
}
102
{ACAD_REACTORS
330
DEB2
102
}
330
DEB2
100
AcDbModelDocViewStyle
 70
     0
  3
Metric50
290
     0
100
AcDbSectionViewStyle
 70
     0
 71
     0
 90
      102
 71
     1
340
F
 40
5.0
340
0
340
0
 40
5.0
300
I, O, Q, S, X, Z
 40
10.0
 90
        0
 40
2.5
 90
        0
 71
     2
340
14
 90
       25
340
14
 90
       50
 40
5.0
 40
2.5
 40
5.0
 71
     3
340
F
 40
5.0
 90
        0
 40
15.0
 90
        1
300
%<\AcVar ViewSectionStartId>%-%<\AcVar ViewSectionEndId>% (%<\AcVar ViewScale \f "%sn">%)
 71
     4
300
ANSI31
 40
1.0
 90
        0
290
     0
290
     0
 90
        6
 40
0.0
 40
1.570796326794896
 40
0.2617993877991494
 40
1.308996938995747
 40
-0.2617993877991494
 40
1.832595714594046
  0
TABLESTYLE
  5
DE9D
102
{ACAD_XDICTIONARY
360
DFC0
102
}
102
{ACAD_REACTORS
330
DE9C
102
}
330
DE9C
100
AcDbTableStyle
  3
Standard
 70
     0
 71
     0
 40
1.5
 41
1.5
280
     0
281
     0
  7
STANDARD
140
4.5
170
     2
 62
     0
 63
     7
283
     0
274
    -2
284
     1
 64
     0
275
    -2
285
     1
 65
     0
276
    -2
286
     1
 66
     0
277
    -2
287
     1
 67
     0
278
    -2
288
     1
 68
     0
279
    -2
289
     1
 69
     0
  7
STANDARD
140
6.0
170
     5
 62
     0
 63
     7
283
     0
274
    -2
284
     1
 64
     0
275
    -2
285
     1
 65
     0
276
    -2
286
     1
 66
     0
277
    -2
287
     1
 67
     0
278
    -2
288
     1
 68
     0
279
    -2
289
     1
 69
     0
  7
STANDARD
140
4.5
170
     5
 62
     0
 63
     7
283
     0
274
    -2
284
     1
 64
     0
275
    -2
285
     1
 65
     0
276
    -2
286
     1
 66
     0
277
    -2
287
     1
 67
     0
278
    -2
288
     1
 68
     0
279
    -2
289
     1
 69
     0
  0
VISUALSTYLE
  5
DE89
102
{ACAD_XDICTIONARY
360
DFE2
102
}
102
{ACAD_REACTORS
330
DE83
102
}
330
DE83
100
AcDbVisualStyle
  2
2dWireframe
 70
     4
 71
     0
 72
     2
 73
     0
 90
        0
 40
-0.6
 41
-30.0
 62
     5
 63
     7
 74
     1
 91
        4
 64
     7
 65
   257
 75
     1
175
     1
 42
1.0
 92
        0
 66
   257
 43
1.0
 76
     1
 77
     6
 78
     2
 67
     7
 79
     5
170
     0
171
     0
290
     0
174
     0
 93
        1
 44
0.0
173
     0
291
     0
 45
0.0
1001
ACAD
1000
AcDbSavedByObjectVersion
1070
     0
  0
VISUALSTYLE
  5
DE88
102
{ACAD_XDICTIONARY
360
DFE0
102
}
102
{ACAD_REACTORS
330
DE83
102
}
330
DE83
100
AcDbVisualStyle
  2
Basic
 70
     7
 71
     1
 72
     0
 73
     1
 90
        0
 40
-0.6
 41
-30.0
 62
     5
 63
     7
 74
     0
 91
        4
 64
     7
 65
   257
 75
     1
175
     1
 42
1.0
 92
        8
 66
     7
 43
1.0
 76
     1
 77
     6
 78
     2
 67
     7
 79
     5
170
     0
171
     0
290
     0
174
     0
 93
        1
 44
0.0
173
     0
291
     1
 45
0.0
1001
ACAD
1000
AcDbSavedByObjectVersion
1070
     0
  0
VISUALSTYLE
  5
DE8F
102
{ACAD_XDICTIONARY
360
DFEE
102
}
102
{ACAD_REACTORS
330
DE83
102
}
330
DE83
100
AcDbVisualStyle
  2
Brighten
 70
    12
 71
     2
 72
     2
 73
     0
 90
        0
 40
-0.6
 41
-30.0
 62
     5
 63
     7
 74
     1
 91
        4
 64
     7
 65
   257
 75
     1
175
     1
 42
1.0
 92
        8
 66
     7
 43
1.0
 76
     1
 77
     6
 78
     2
 67
     7
 79
     5
170
     0
171
     0
290
     0
174
     0
 93
        1
 44
50.0
173
     0
291
     1
 45
0.0
1001
ACAD
1000
AcDbSavedByObjectVersion
1070
     0
  0
VISUALSTYLE
  5
DE93
102
{ACAD_XDICTIONARY
360
DFF6
102
}
102
{ACAD_REACTORS
330
DE83
102
}
330
DE83
100
AcDbVisualStyle
  2
ColorChange
 70
    16
 71
     2
 72
     2
 73
     3
 90
        0
 40
-0.6
 41
-30.0
 62
     5
 63
     8
 74
     1
 91
        4
 64
     7
 65
   257
 75
     1
175
     1
 42
1.0
 92
        8
 66
     8
 43
1.0
 76
     1
 77
     6
 78
     2
 67
     7
 79
     5
170
     0
171
     0
290
     0
174
     0
 93
        1
 44
0.0
173
     0
291
     1
 45
0.0
1001
ACAD
1000
AcDbSavedByObjectVersion
1070
     0
  0
VISUALSTYLE
  5
DE8C
102
{ACAD_XDICTIONARY
360
DFE8
102
}
102
{ACAD_REACTORS
330
DE83
102
}
330
DE83
100
AcDbVisualStyle
  2
Conceptual
 70
     9
 71
     3
 72
     2
 73
     0
 90
        0
 40
-0.6
 41
-30.0
 62
     5
 63
     7
 74
     2
 91
        2
 64
     7
 65
   257
 75
     1
175
     1
 42
179.0
 92
        8
 66
     7
 43
1.0
 76
     1
 77
     6
 78
     2
 67
     7
 79
     3
170
     0
171
     0
290
     0
174
     0
 93
        1
 44
0.0
173
     0
291
     0
 45
0.0
1001
ACAD
1000
AcDbSavedByObjectVersion
1070
     0
  0
VISUALSTYLE
  5
DE8E
102
{ACAD_XDICTIONARY
360
DFEC
102
}
102
{ACAD_REACTORS
330
DE83
102
}
330
DE83
100
AcDbVisualStyle
  2
Dim
 70
    11
 71
     2
 72
     2
 73
     0
 90
        0
 40
-0.6
 41
-30.0
 62
     5
 63
     7
 74
     1
 91
        4
 64
     7
 65
   257
 75
     1
175
     1
 42
1.0
 92
        8
 66
     7
 43
1.0
 76
     1
 77
     6
 78
     2
 67
     7
 79
     5
170
     0
171
     0
290
     0
174
     0
 93
        1
 44
-50.0
173
     0
291
     1
 45
0.0
1001
ACAD
1000
AcDbSavedByObjectVersion
1070
     0
  0
VISUALSTYLE
  5
DE9B
102
{ACAD_XDICTIONARY
360
E006
102
}
102
{ACAD_REACTORS
330
DE83
102
}
330
DE83
100
AcDbVisualStyle
  2
EdgeColorOff
 70
    22
 71
     2
 72
     2
 73
     0
 90
        0
 40
-0.6
 41
-30.0
 62
     5
 63
     7
 74
     1
 91
        4
 64
     7
 65
   257
 75
     1
175
     1
 42
1.0
 92
        8
 66
     7
 43
1.0
 76
     1
 77
     6
 78
     2
 67
     7
 79
     5
170
     0
171
     0
290
     0
174
     0
 93
        1
 44
0.0
173
     0
291
     1
 45
0.0
1001
ACAD
1000
AcDbSavedByObjectVersion
1070
     0
  0
VISUALSTYLE
  5
DE92
102
{ACAD_XDICTIONARY
360
DFF4
102
}
102
{ACAD_REACTORS
330
DE83
102
}
330
DE83
100
AcDbVisualStyle
  2
Facepattern
 70
    15
 71
     2
 72
     2
 73
     0
 90
        0
 40
-0.6
 41
-30.0
 62
     5
 63
     7
 74
     1
 91
        4
 64
     7
 65
   257
 75
     1
175
     1
 42
1.0
 92
        8
 66
     7
 43
1.0
 76
     1
 77
     6
 78
     2
 67
     7
 79
     5
170
     0
171
     0
290
     0
174
     0
 93
        1
 44
0.0
173
     0
291
     1
 45
0.0
1001
ACAD
1000
AcDbSavedByObjectVersion
1070
     0
  0
VISUALSTYLE
  5
DE84
102
{ACAD_XDICTIONARY
360
DFD8
102
}
102
{ACAD_REACTORS
330
DE83
102
}
330
DE83
100
AcDbVisualStyle
  2
Flat
 70
     0
 71
     2
 72
     1
 73
     1
 90
        2
 40
-0.6
 41
30.0
 62
     5
 63
     7
 74
     0
 91
        0
 64
     7
 65
   257
 75
     1
175
     1
 42
1.0
 92
        8
 66
     7
 43
1.0
 76
     1
 77
     6
 78
     2
 67
     7
 79
     5
170
     0
171
     0
290
     0
174
     0
 93
       13
 44
0.0
173
     0
291
     1
 45
0.0
1001
ACAD
1000
AcDbSavedByObjectVersion
1070
     0
  0
VISUALSTYLE
  5
DE85
102
{ACAD_XDICTIONARY
360
DFDA
102
}
102
{ACAD_REACTORS
330
DE83
102
}
330
DE83
100
AcDbVisualStyle
  2
FlatWithEdges
 70
     1
 71
     2
 72
     1
 73
     1
 90
        2
 40
-0.6
 41
30.0
 62
     5
 63
     7
 74
     1
 91
        0
 64
     7
 65
   257
 75
     1
175
     1
 42
1.0
 92
        0
 66
   257
 43
1.0
 76
     1
 77
     6
 78
     2
 67
     7
 79
     5
170
     0
171
     0
290
     0
174
     0
 93
       13
 44
0.0
173
     0
291
     1
 45
0.0
1001
ACAD
1000
AcDbSavedByObjectVersion
1070
     0
  0
VISUALSTYLE
  5
DE86
102
{ACAD_XDICTIONARY
360
DFDC
102
}
102
{ACAD_REACTORS
330
DE83
102
}
330
DE83
100
AcDbVisualStyle
  2
Gouraud
 70
     2
 71
     2
 72
     2
 73
     1
 90
        2
 40
-0.6
 41
30.0
 62
     5
 63
     7
 74
     0
 91
        0
 64
     7
 65
   257
 75
     1
175
     1
 42
1.0
 92
        0
 66
     7
 43
1.0
 76
     1
 77
     6
 78
     2
 67
     7
 79
     5
170
     0
171
     0
290
     0
174
     0
 93
       13
 44
0.0
173
     0
291
     1
 45
0.0
1001
ACAD
1000
AcDbSavedByObjectVersion
1070
     0
  0
VISUALSTYLE
  5
DE87
102
{ACAD_XDICTIONARY
360
DFDE
102
}
102
{ACAD_REACTORS
330
DE83
102
}
330
DE83
100
AcDbVisualStyle
  2
GouraudWithEdges
 70
     3
 71
     2
 72
     2
 73
     1
 90
        2
 40
-0.6
 41
30.0
 62
     5
 63
     7
 74
     1
 91
        0
 64
     7
 65
   257
 75
     1
175
     1
 42
1.0
 92
        0
 66
   257
 43
1.0
 76
     1
 77
     6
 78
     2
 67
     7
 79
     5
170
     0
171
     0
290
     0
174
     0
 93
       13
 44
0.0
173
     0
291
     1
 45
0.0
1001
ACAD
1000
AcDbSavedByObjectVersion
1070
     0
  0
VISUALSTYLE
  5
DE8B
102
{ACAD_XDICTIONARY
360
DFE6
102
}
102
{ACAD_REACTORS
330
DE83
102
}
330
DE83
100
AcDbVisualStyle
  2
Hidden
 70
     6
 71
     1
 72
     2
 73
     2
 90
        0
 40
-0.6
 41
-30.0
 62
     5
 63
     7
 74
     2
 91
        2
 64
     7
 65
   257
 75
     2
175
     1
 42
40.0
 92
        0
 66
   257
 43
1.0
 76
     1
 77
     6
 78
     2
 67
     7
 79
     3
170
     0
171
     0
290
     0
174
     0
 93
        1
 44
0.0
173
     0
291
     0
 45
0.0
1001
ACAD
1000
AcDbSavedByObjectVersion
1070
     0
  0
VISUALSTYLE
  5
DE99
102
{ACAD_XDICTIONARY
360
E002
102
}
102
{ACAD_REACTORS
330
DE83
102
}
330
DE83
100
AcDbVisualStyle
  2
JitterOff
 70
    20
 71
     2
 72
     2
 73
     0
 90
        0
 40
-0.6
 41
-30.0
 62
     5
 63
     7
 74
     1
 91
        4
 64
     7
 65
   257
 75
     1
175
     1
 42
1.0
 92
       10
 66
     7
 43
1.0
 76
     1
 77
     6
 78
     2
 67
     7
 79
     5
170
     0
171
     0
290
     0
174
     0
 93
        1
 44
0.0
173
     0
291
     1
 45
0.0
1001
ACAD
1000
AcDbSavedByObjectVersion
1070
     0
  0
VISUALSTYLE
  5
DE91
102
{ACAD_XDICTIONARY
360
DFF2
102
}
102
{ACAD_REACTORS
330
DE83
102
}
330
DE83
100
AcDbVisualStyle
  2
Linepattern
 70
    14
 71
     2
 72
     2
 73
     0
 90
        0
 40
-0.6
 41
-30.0
 62
     5
 63
     7
 74
     1
 91
        4
 64
     7
 65
   257
 75
     7
175
     7
 42
1.0
 92
        8
 66
     7
 43
1.0
 76
     1
 77
     6
 78
     2
 67
     7
 79
     5
170
     0
171
     0
290
     0
174
     0
 93
        1
 44
0.0
173
     0
291
     1
 45
0.0
1001
ACAD
1000
AcDbSavedByObjectVersion
1070
     0
  0
VISUALSTYLE
  5
DE9A
102
{ACAD_XDICTIONARY
360
E004
102
}
102
{ACAD_REACTORS
330
DE83
102
}
330
DE83
100
AcDbVisualStyle
  2
OverhangOff
 70
    21
 71
     2
 72
     2
 73
     0
 90
        0
 40
-0.6
 41
-30.0
 62
     5
 63
     7
 74
     1
 91
        4
 64
     7
 65
   257
 75
     1
175
     1
 42
1.0
 92
        9
 66
     7
 43
1.0
 76
     1
 77
     6
 78
     2
 67
     7
 79
     5
170
     0
171
     0
290
     0
174
     0
 93
        1
 44
0.0
173
     0
291
     1
 45
0.0
1001
ACAD
1000
AcDbSavedByObjectVersion
1070
     0
  0
VISUALSTYLE
  5
DE8D
102
{ACAD_XDICTIONARY
360
DFEA
102
}
102
{ACAD_REACTORS
330
DE83
102
}
330
DE83
100
AcDbVisualStyle
  2
Realistic
 70
     8
 71
     2
 72
     3
 73
     0
 90
        2
 40
-0.6
 41
30.0
 62
     5
 63
     7
 74
     0
 91
        0
 64
     7
 65
   257
 75
     1
175
     1
 42
1.0
 92
        8
 66
   257
 43
1.0
 76
     1
 77
     6
 78
     2
 67
     7
 79
     3
170
     0
171
     0
290
     0
174
     0
 93
       13
 44
0.0
173
     0
291
     0
 45
0.0
1001
ACAD
1000
AcDbSavedByObjectVersion
1070
     0
  0
VISUALSTYLE
  5
DE98
102
{ACAD_XDICTIONARY
360
E000
102
}
102
{ACAD_REACTORS
330
DE83
102
}
330
DE83
100
AcDbVisualStyle
  2
Shaded
 70
    27
 71
     2
 72
     2
 73
     1
 90
        2
 40
-0.6
 41
30.0
 62
     5
 63
     7
 74
     0
 91
        4
 64
     7
 65
   257
 75
     1
175
     1
 42
1.0
 92
        8
 66
   257
 43
1.0
 76
     1
 77
     6
 78
     2
 67
     8
 79
     3
170
     0
171
     0
290
     0
174
     0
 93
        5
 44
0.0
173
     0
291
     0
 45
0.0
1001
ACAD
1000
AcDbSavedByObjectVersion
1070
     0
  0
VISUALSTYLE
  5
DE97
102
{ACAD_XDICTIONARY
360
DFFE
102
}
102
{ACAD_REACTORS
330
DE83
102
}
330
DE83
100
AcDbVisualStyle
  2
Shaded with edges
 70
    26
 71
     2
 72
     2
 73
     1
 90
        2
 40
-0.6
 41
30.0
 62
     5
 63
     7
 74
     1
 91
        2
 64
     7
 65
   257
 75
     2
175
     1
 42
1.0
 92
        8
 66
   257
 43
1.0
 76
     1
 77
     6
 78
     2
 67
     7
 79
     3
170
     0
171
     0
290
     0
174
     0
 93
        5
 44
0.0
173
     0
291
     0
 45
0.0
1001
ACAD
1000
AcDbSavedByObjectVersion
1070
     0
  0
VISUALSTYLE
  5
DE94
102
{ACAD_XDICTIONARY
360
DFF8
102
}
102
{ACAD_REACTORS
330
DE83
102
}
330
DE83
100
AcDbVisualStyle
  2
Shades of Gray
 70
    23
 71
     2
 72
     2
 73
     3
 90
        0
 40
-0.6
 41
-30.0
 62
     5
 63
     7
 74
     2
 91
        2
 64
     7
 65
     7
 75
     1
175
     1
 42
40.0
 92
        8
 66
     7
 43
1.0
 76
     1
 77
     6
 78
     2
 67
     7
 79
     3
170
     0
171
     0
290
     0
174
     0
 93
        1
 44
0.0
173
     0
291
     0
 45
0.0
1001
ACAD
1000
AcDbSavedByObjectVersion
1070
     0
  0
VISUALSTYLE
  5
DE95
102
{ACAD_XDICTIONARY
360
DFFA
102
}
102
{ACAD_REACTORS
330
DE83
102
}
330
DE83
100
AcDbVisualStyle
  2
Sketchy
 70
    24
 71
     1
 72
     2
 73
     2
 90
        0
 40
-0.6
 41
-30.0
 62
     5
 63
     7
 74
     2
 91
        2
 64
     7
 65
     7
 75
     1
175
     1
 42
40.0
 92
       11
 66
     7
 43
1.0
 76
     1
 77
     6
 78
     2
 67
     7
 79
     6
170
     0
171
     0
290
     0
174
     0
 93
        1
 44
0.0
173
     0
291
     0
 45
0.0
1001
ACAD
1000
AcDbSavedByObjectVersion
1070
     0
  0
VISUALSTYLE
  5
DE90
102
{ACAD_XDICTIONARY
360
DFF0
102
}
102
{ACAD_REACTORS
330
DE83
102
}
330
DE83
100
AcDbVisualStyle
  2
Thicken
 70
    13
 71
     2
 72
     2
 73
     0
 90
        0
 40
-0.6
 41
-30.0
 62
     5
 63
     7
 74
     1
 91
        4
 64
     7
 65
   257
 75
     1
175
     1
 42
1.0
 92
       12
 66
     7
 43
1.0
 76
     1
 77
     6
 78
     2
 67
     7
 79
     5
170
     0
171
     0
290
     0
174
     0
 93
        1
 44
0.0
173
     0
291
     1
 45
0.0
1001
ACAD
1000
AcDbSavedByObjectVersion
1070
     0
  0
VISUALSTYLE
  5
DE8A
102
{ACAD_XDICTIONARY
360
DFE4
102
}
102
{ACAD_REACTORS
330
DE83
102
}
330
DE83
100
AcDbVisualStyle
  2
Wireframe
 70
     5
 71
     0
 72
     2
 73
     0
 90
        0
 40
-0.6
 41
-30.0
 62
     5
 63
     7
 74
     1
 91
        4
 64
     7
 65
   257
 75
     1
175
     1
 42
1.0
 92
        0
 66
   257
 43
1.0
 76
     1
 77
     6
 78
     2
 67
     7
 79
     3
170
     0
171
     0
290
     0
174
     0
 93
        1
 44
0.0
173
     0
291
     0
 45
0.0
1001
ACAD
1000
AcDbSavedByObjectVersion
1070
     0
  0
VISUALSTYLE
  5
DE96
102
{ACAD_XDICTIONARY
360
DFFC
102
}
102
{ACAD_REACTORS
330
DE83
102
}
330
DE83
100
AcDbVisualStyle
  2
X-Ray
 70
    25
 71
     2
 72
     2
 73
     1
 90
        1
 40
0.5
 41
-30.0
 62
     5
 63
     7
 74
     1
 91
        0
 64
     7
 65
   257
 75
     1
175
     1
 42
1.0
 92
        8
 66
     7
 43
1.0
 76
     1
 77
     6
 78
     2
 67
     7
 79
     3
170
     0
171
     0
290
     0
174
     0
 93
       13
 44
0.0
173
     0
291
     0
 45
0.0
1001
ACAD
1000
AcDbSavedByObjectVersion
1070
     0
  0
DICTIONARYVAR
  5
DFBD
102
{ACAD_REACTORS
330
2ED
102
}
330
2ED
100
DictionaryVariables
280
     0
  1
1:1
  0
DICTIONARYVAR
  5
DFBA
102
{ACAD_REACTORS
330
2ED
102
}
330
2ED
100
DictionaryVariables
280
     0
  1
STANDARD
  0
DICTIONARYVAR
  5
DFB9
102
{ACAD_REACTORS
330
2ED
102
}
330
2ED
100
DictionaryVariables
280
     0
  1
STANDARD
  0
DICTIONARYVAR
  5
DFBB
102
{ACAD_REACTORS
330
2ED
102
}
330
2ED
100
DictionaryVariables
280
     0
  1
Metric50
  0
DICTIONARYVAR
  5
DFBC
102
{ACAD_REACTORS
330
2ED
102
}
330
2ED
100
DictionaryVariables
280
     0
  1
Metric50
  0
DICTIONARYVAR
  5
493
102
{ACAD_REACTORS
330
2ED
102
}
330
2ED
100
DictionaryVariables
280
     0
  1
1
  0
DICTIONARYVAR
  5
DFBE
102
{ACAD_REACTORS
330
2ED
102
}
330
2ED
100
DictionaryVariables
280
     0
  1
0
  0
DICTIONARYVAR
  5
518
102
{ACAD_REACTORS
330
2ED
102
}
330
2ED
100
DictionaryVariables
280
     0
  1

  0
DICTIONARYVAR
  5
2EE
102
{ACAD_REACTORS
330
2ED
102
}
330
2ED
100
DictionaryVariables
280
     0
  1
96
  0
DICTIONARYVAR
  5
DFBF
102
{ACAD_REACTORS
330
2ED
102
}
330
2ED
100
DictionaryVariables
280
     0
  1
0
  0
DICTIONARY
  5
DFCE
102
{ACAD_REACTORS
330
DFCC
102
}
330
DFCC
100
AcDbDictionary
281
     1
  0
DICTIONARY
  5
DFCD
102
{ACAD_REACTORS
330
DFCC
102
}
330
DFCC
100
AcDbDictionary
281
     1
  3
2191589188976
350
DFC7
  3
2191589188992
350
DFC8
  3
2191589189008
350
DFC9
  3
2191589189024
350
DFCA
  3
2191589189040
350
DFCB
  0
DICTIONARY
  5
E00E
330
DEB5
100
AcDbDictionary
280
     1
281
     1
  3
ACAD_XREC_ROUNDTRIP
360
E00F
  0
DICTIONARY
  5
DFD1
330
441
100
AcDbDictionary
280
     1
281
     1
  3
ACAD_XREC_ROUNDTRIP
360
DFD2
  0
DICTIONARY
  5
DFD3
330
442
100
AcDbDictionary
280
     1
281
     1
  3
ACAD_XREC_ROUNDTRIP
360
DFD4
  0
DICTIONARY
  5
DE74
330
DE73
100
AcDbDictionary
280
     1
281
     1
  3
ACAD_XREC_ROUNDTRIP
360
DFD6
  3
BUMPTILE
360
DE76
  3
DIFFUSETILE
360
DE75
  3
OPACITYTILE
360
DE79
  3
REFLECTIONTILE
360
DE78
  3
REFRACTIONTILE
360
DE7A
  3
SPECULARTILE
360
DE77
  0
DICTIONARY
  5
DE6C
330
DE6B
100
AcDbDictionary
280
     1
281
     1
  3
ACAD_XREC_ROUNDTRIP
360
DFD5
  3
BUMPTILE
360
DE6E
  3
DIFFUSETILE
360
DE6D
  3
OPACITYTILE
360
DE71
  3
REFLECTIONTILE
360
DE70
  3
REFRACTIONTILE
360
DE72
  3
SPECULARTILE
360
DE6F
  0
DICTIONARY
  5
DE7C
330
DE7B
100
AcDbDictionary
280
     1
281
     1
  3
ACAD_XREC_ROUNDTRIP
360
DFD7
  3
BUMPTILE
360
DE7E
  3
DIFFUSETILE
360
DE7D
  3
OPACITYTILE
360
DE81
  3
REFLECTIONTILE
360
DE80
  3
REFRACTIONTILE
360
DE82
  3
SPECULARTILE
360
DE7F
  0
DICTIONARY
  5
E00A
330
DEB1
100
AcDbDictionary
280
     1
281
     1
  3
ACAD_XREC_ROUNDTRIP
360
E00B
  0
DICTIONARY
  5
E00C
330
DEB3
100
AcDbDictionary
280
     1
281
     1
  3
ACAD_XREC_ROUNDTRIP
360
E00D
  0
DICTIONARY
  5
DFC0
330
DE9D
100
AcDbDictionary
280
     1
281
     1
  3
ACAD_ROUNDTRIP_2008_TABLESTYLE_CELLSTYLEMAP
360
DFC1
  3
ACAD_XREC_ROUNDTRIP
360
E008
  0
DICTIONARY
  5
DFE2
330
DE89
100
AcDbDictionary
280
     1
281
     1
  3
ACAD_XREC_ROUNDTRIP
360
DFE3
  0
DICTIONARY
  5
DFE0
330
DE88
100
AcDbDictionary
280
     1
281
     1
  3
ACAD_XREC_ROUNDTRIP
360
DFE1
  0
DICTIONARY
  5
DFEE
330
DE8F
100
AcDbDictionary
280
     1
281
     1
  3
ACAD_XREC_ROUNDTRIP
360
DFEF
  0
DICTIONARY
  5
DFF6
330
DE93
100
AcDbDictionary
280
     1
281
     1
  3
ACAD_XREC_ROUNDTRIP
360
DFF7
  0
DICTIONARY
  5
DFE8
330
DE8C
100
AcDbDictionary
280
     1
281
     1
  3
ACAD_XREC_ROUNDTRIP
360
DFE9
  0
DICTIONARY
  5
DFEC
330
DE8E
100
AcDbDictionary
280
     1
281
     1
  3
ACAD_XREC_ROUNDTRIP
360
DFED
  0
DICTIONARY
  5
E006
330
DE9B
100
AcDbDictionary
280
     1
281
     1
  3
ACAD_XREC_ROUNDTRIP
360
E007
  0
DICTIONARY
  5
DFF4
330
DE92
100
AcDbDictionary
280
     1
281
     1
  3
ACAD_XREC_ROUNDTRIP
360
DFF5
  0
DICTIONARY
  5
DFD8
330
DE84
100
AcDbDictionary
280
     1
281
     1
  3
ACAD_XREC_ROUNDTRIP
360
DFD9
  0
DICTIONARY
  5
DFDA
330
DE85
100
AcDbDictionary
280
     1
281
     1
  3
ACAD_XREC_ROUNDTRIP
360
DFDB
  0
DICTIONARY
  5
DFDC
330
DE86
100
AcDbDictionary
280
     1
281
     1
  3
ACAD_XREC_ROUNDTRIP
360
DFDD
  0
DICTIONARY
  5
DFDE
330
DE87
100
AcDbDictionary
280
     1
281
     1
  3
ACAD_XREC_ROUNDTRIP
360
DFDF
  0
DICTIONARY
  5
DFE6
330
DE8B
100
AcDbDictionary
280
     1
281
     1
  3
ACAD_XREC_ROUNDTRIP
360
DFE7
  0
DICTIONARY
  5
E002
330
DE99
100
AcDbDictionary
280
     1
281
     1
  3
ACAD_XREC_ROUNDTRIP
360
E003
  0
DICTIONARY
  5
DFF2
330
DE91
100
AcDbDictionary
280
     1
281
     1
  3
ACAD_XREC_ROUNDTRIP
360
DFF3
  0
DICTIONARY
  5
E004
330
DE9A
100
AcDbDictionary
280
     1
281
     1
  3
ACAD_XREC_ROUNDTRIP
360
E005
  0
DICTIONARY
  5
DFEA
330
DE8D
100
AcDbDictionary
280
     1
281
     1
  3
ACAD_XREC_ROUNDTRIP
360
DFEB
  0
DICTIONARY
  5
E000
330
DE98
100
AcDbDictionary
280
     1
281
     1
  3
ACAD_XREC_ROUNDTRIP
360
E001
  0
DICTIONARY
  5
DFFE
330
DE97
100
AcDbDictionary
280
     1
281
     1
  3
ACAD_XREC_ROUNDTRIP
360
DFFF
  0
DICTIONARY
  5
DFF8
330
DE94
100
AcDbDictionary
280
     1
281
     1
  3
ACAD_XREC_ROUNDTRIP
360
DFF9
  0
DICTIONARY
  5
DFFA
330
DE95
100
AcDbDictionary
280
     1
281
     1
  3
ACAD_XREC_ROUNDTRIP
360
DFFB
  0
DICTIONARY
  5
DFF0
330
DE90
100
AcDbDictionary
280
     1
281
     1
  3
ACAD_XREC_ROUNDTRIP
360
DFF1
  0
DICTIONARY
  5
DFE4
330
DE8A
100
AcDbDictionary
280
     1
281
     1
  3
ACAD_XREC_ROUNDTRIP
360
DFE5
  0
DICTIONARY
  5
DFFC
330
DE96
100
AcDbDictionary
280
     1
281
     1
  3
ACAD_XREC_ROUNDTRIP
360
DFFD
  0
XRECORD
  5
DFC7
102
{ACAD_REACTORS
330
DFCD
102
}
330
DFCD
100
AcDbXrecord
280
     1
  1
AcDb_Thumbnail_Schema
102
{ATTRRECORD
341
DFC8
  2
AcDbDs::TreatedAsObjectData
280
     1
291
     1
102
ATTRRECORD}
102
{ATTRRECORD
341
DFC9
  2
AcDbDs::Legacy
280
     1
291
     1
102
ATTRRECORD}
  2
AcDbDs::ID
280
    10
 91
        8
102
{ATTRRECORD
341
DFCA
  2
AcDs:Indexable
280
     1
291
     1
102
ATTRRECORD}
102
{ATTRRECORD
341
DFCB
  2
AcDbDs::HandleAttribute
280
     7
282
     1
102
ATTRRECORD}
  2
Thumbnail_Data
280
    15
 91
        0
  0
XRECORD
  5
DFC8
102
{ACAD_REACTORS
330
DFCD
102
}
330
DFCD
100
AcDbXrecord
280
     1
  1
AcDbDs::TreatedAsObjectDataSchema
  2
AcDbDs::TreatedAsObjectData
280
     1
 91
        0
  0
XRECORD
  5
DFC9
102
{ACAD_REACTORS
330
DFCD
102
}
330
DFCD
100
AcDbXrecord
280
     1
  1
AcDbDs::LegacySchema
  2
AcDbDs::Legacy
280
     1
 91
        0
  0
XRECORD
  5
DFCA
102
{ACAD_REACTORS
330
DFCD
102
}
330
DFCD
100
AcDbXrecord
280
     1
  1
AcDbDs::IndexedPropertySchema
  2
AcDs:Indexable
280
     1
 91
        0
  0
XRECORD
  5
DFCB
102
{ACAD_REACTORS
330
DFCD
102
}
330
DFCD
100
AcDbXrecord
280
     1
  1
AcDbDs::HandleAttributeSchema
  2
AcDbDs::HandleAttribute
280
     7
 91
        1
284
     1
  0
XRECORD
  5
E00F
102
{ACAD_REACTORS
330
E00E
102
}
330
E00E
100
AcDbXrecord
280
     1
102
DISPLAYNAME
  1
Metric50
102
FLAGS
 90
        0
  0
XRECORD
  5
DFD2
102
{ACAD_REACTORS
330
DFD1
102
}
330
DFD1
100
AcDbXrecord
280
     1
102
SHADEPLOT
 70
     1
102
SHADEPLOTRESLEVEL
 70
     2
102
SHADEPLOTCUSTOMDPI
 70
   300
  0
XRECORD
  5
DFD4
102
{ACAD_REACTORS
330
DFD3
102
}
330
DFD3
100
AcDbXrecord
280
     1
102
SHADEPLOT
 70
     0
102
SHADEPLOTRESLEVEL
 70
     2
102
SHADEPLOTCUSTOMDPI
 70
   300
  0
XRECORD
  5
DFD6
102
{ACAD_REACTORS
330
DE74
102
}
330
DE74
100
AcDbXrecord
280
     1
102
MATERIAL
148
0.0
149
0.0
149
0.0
 93
        0
 94
      127
282
     0
 72
     0
 77
     0
171
     0
175
     0
179
     0
273
     0
  0
XRECORD
  5
DE76
102
{ACAD_REACTORS
330
DE74
102
}
330
DE74
100
AcDbXrecord
280
     1
270
     1
271
     1
  0
XRECORD
  5
DE75
102
{ACAD_REACTORS
330
DE74
102
}
330
DE74
100
AcDbXrecord
280
     1
270
     1
271
     1
  0
XRECORD
  5
DE79
102
{ACAD_REACTORS
330
DE74
102
}
330
DE74
100
AcDbXrecord
280
     1
270
     1
271
     1
  0
XRECORD
  5
DE78
102
{ACAD_REACTORS
330
DE74
102
}
330
DE74
100
AcDbXrecord
280
     1
270
     1
271
     1
  0
XRECORD
  5
DE7A
102
{ACAD_REACTORS
330
DE74
102
}
330
DE74
100
AcDbXrecord
280
     1
270
     1
271
     1
  0
XRECORD
  5
DE77
102
{ACAD_REACTORS
330
DE74
102
}
330
DE74
100
AcDbXrecord
280
     1
270
     1
271
     1
  0
XRECORD
  5
DFD5
102
{ACAD_REACTORS
330
DE6C
102
}
330
DE6C
100
AcDbXrecord
280
     1
102
MATERIAL
148
0.0
149
0.0
149
0.0
 93
        0
 94
      127
282
     0
 72
     0
 77
     0
171
     0
175
     0
179
     0
273
     0
  0
XRECORD
  5
DE6E
102
{ACAD_REACTORS
330
DE6C
102
}
330
DE6C
100
AcDbXrecord
280
     1
270
     1
271
     1
  0
XRECORD
  5
DE6D
102
{ACAD_REACTORS
330
DE6C
102
}
330
DE6C
100
AcDbXrecord
280
     1
270
     1
271
     1
  0
XRECORD
  5
DE71
102
{ACAD_REACTORS
330
DE6C
102
}
330
DE6C
100
AcDbXrecord
280
     1
270
     1
271
     1
  0
XRECORD
  5
DE70
102
{ACAD_REACTORS
330
DE6C
102
}
330
DE6C
100
AcDbXrecord
280
     1
270
     1
271
     1
  0
XRECORD
  5
DE72
102
{ACAD_REACTORS
330
DE6C
102
}
330
DE6C
100
AcDbXrecord
280
     1
270
     1
271
     1
  0
XRECORD
  5
DE6F
102
{ACAD_REACTORS
330
DE6C
102
}
330
DE6C
100
AcDbXrecord
280
     1
270
     1
271
     1
  0
XRECORD
  5
DFD7
102
{ACAD_REACTORS
330
DE7C
102
}
330
DE7C
100
AcDbXrecord
280
     1
102
MATERIAL
148
0.0
149
0.0
149
0.0
 93
        0
 94
      127
282
     0
 72
     0
 77
     0
171
     0
175
     0
179
     0
273
     0
  0
XRECORD
  5
DE7E
102
{ACAD_REACTORS
330
DE7C
102
}
330
DE7C
100
AcDbXrecord
280
     1
270
     1
271
     1
  0
XRECORD
  5
DE7D
102
{ACAD_REACTORS
330
DE7C
102
}
330
DE7C
100
AcDbXrecord
280
     1
270
     1
271
     1
  0
XRECORD
  5
DE81
102
{ACAD_REACTORS
330
DE7C
102
}
330
DE7C
100
AcDbXrecord
280
     1
270
     1
271
     1
  0
XRECORD
  5
DE80
102
{ACAD_REACTORS
330
DE7C
102
}
330
DE7C
100
AcDbXrecord
280
     1
270
     1
271
     1
  0
XRECORD
  5
DE82
102
{ACAD_REACTORS
330
DE7C
102
}
330
DE7C
100
AcDbXrecord
280
     1
270
     1
271
     1
  0
XRECORD
  5
DE7F
102
{ACAD_REACTORS
330
DE7C
102
}
330
DE7C
100
AcDbXrecord
280
     1
270
     1
271
     1
  0
XRECORD
  5
E00B
102
{ACAD_REACTORS
330
E00A
102
}
330
E00A
100
AcDbXrecord
280
     1
102
ACAD_ROUNDTRIP_2012_MLEADER_STYLE
298
     1
  0
XRECORD
  5
E00D
102
{ACAD_REACTORS
330
E00C
102
}
330
E00C
100
AcDbXrecord
280
     1
102
DISPLAYNAME
  1
Metric50
102
FLAGS
 90
        0
  0
CELLSTYLEMAP
  5
DFC1
102
{ACAD_REACTORS
330
DFC0
102
}
330
DFC0
100
AcDbCellStyleMap
 90
        3
300
CELLSTYLE
  1
TABLEFORMAT_BEGIN
 90
        5
170
     1
 91
        0
 92
    32768
 62
   257
 93
        1
300
CONTENTFORMAT
  1
CONTENTFORMAT_BEGIN
 90
        0
 91
        0
 92
      512
 93
        0
300

 40
0.0
140
1.0
 94
        5
 62
     0
340
F
144
6.0
309
CONTENTFORMAT_END
171
     1
301
MARGIN
  1
CELLMARGIN_BEGIN
 40
1.5
 40
1.5
 40
1.5
 40
1.5
 40
4.5
 40
4.5
309
CELLMARGIN_END
 94
        6
 95
        1
302
GRIDFORMAT
  1
GRIDFORMAT_BEGIN
 90
        0
 91
        1
 62
     0
 92
       -2
340
0
 93
        0
 40
1.125
309
GRIDFORMAT_END
 95
        2
302
GRIDFORMAT
  1
GRIDFORMAT_BEGIN
 90
        0
 91
        1
 62
     0
 92
       -2
340
0
 93
        0
 40
1.125
309
GRIDFORMAT_END
 95
        4
302
GRIDFORMAT
  1
GRIDFORMAT_BEGIN
 90
        0
 91
        1
 62
     0
 92
       -2
340
0
 93
        0
 40
1.125
309
GRIDFORMAT_END
 95
        8
302
GRIDFORMAT
  1
GRIDFORMAT_BEGIN
 90
        0
 91
        1
 62
     0
 92
       -2
340
0
 93
        0
 40
1.125
309
GRIDFORMAT_END
 95
       16
302
GRIDFORMAT
  1
GRIDFORMAT_BEGIN
 90
        0
 91
        1
 62
     0
 92
       -2
340
0
 93
        0
 40
1.125
309
GRIDFORMAT_END
 95
       32
302
GRIDFORMAT
  1
GRIDFORMAT_BEGIN
 90
        0
 91
        1
 62
     0
 92
       -2
340
0
 93
        0
 40
1.125
309
GRIDFORMAT_END
309
TABLEFORMAT_END
  1
CELLSTYLE_BEGIN
 90
        1
 91
        1
300
_TITLE
309
CELLSTYLE_END
300
CELLSTYLE
  1
TABLEFORMAT_BEGIN
 90
        5
170
     1
 91
        0
 92
        0
 62
   257
 93
        1
300
CONTENTFORMAT
  1
CONTENTFORMAT_BEGIN
 90
        0
 91
        0
 92
      512
 93
        0
300

 40
0.0
140
1.0
 94
        5
 62
     0
340
F
144
4.5
309
CONTENTFORMAT_END
171
     1
301
MARGIN
  1
CELLMARGIN_BEGIN
 40
1.5
 40
1.5
 40
1.5
 40
1.5
 40
4.5
 40
4.5
309
CELLMARGIN_END
 94
        6
 95
        1
302
GRIDFORMAT
  1
GRIDFORMAT_BEGIN
 90
        0
 91
        1
 62
     0
 92
       -2
340
0
 93
        0
 40
1.125
309
GRIDFORMAT_END
 95
        2
302
GRIDFORMAT
  1
GRIDFORMAT_BEGIN
 90
        0
 91
        1
 62
     0
 92
       -2
340
0
 93
        0
 40
1.125
309
GRIDFORMAT_END
 95
        4
302
GRIDFORMAT
  1
GRIDFORMAT_BEGIN
 90
        0
 91
        1
 62
     0
 92
       -2
340
0
 93
        0
 40
1.125
309
GRIDFORMAT_END
 95
        8
302
GRIDFORMAT
  1
GRIDFORMAT_BEGIN
 90
        0
 91
        1
 62
     0
 92
       -2
340
0
 93
        0
 40
1.125
309
GRIDFORMAT_END
 95
       16
302
GRIDFORMAT
  1
GRIDFORMAT_BEGIN
 90
        0
 91
        1
 62
     0
 92
       -2
340
0
 93
        0
 40
1.125
309
GRIDFORMAT_END
 95
       32
302
GRIDFORMAT
  1
GRIDFORMAT_BEGIN
 90
        0
 91
        1
 62
     0
 92
       -2
340
0
 93
        0
 40
1.125
309
GRIDFORMAT_END
309
TABLEFORMAT_END
  1
CELLSTYLE_BEGIN
 90
        2
 91
        1
300
_HEADER
309
CELLSTYLE_END
300
CELLSTYLE
  1
TABLEFORMAT_BEGIN
 90
        5
170
     1
 91
        0
 92
        0
 62
   257
 93
        1
300
CONTENTFORMAT
  1
CONTENTFORMAT_BEGIN
 90
        0
 91
        0
 92
      512
 93
        0
300

 40
0.0
140
1.0
 94
        2
 62
     0
340
F
144
4.5
309
CONTENTFORMAT_END
171
     1
301
MARGIN
  1
CELLMARGIN_BEGIN
 40
1.5
 40
1.5
 40
1.5
 40
1.5
 40
4.5
 40
4.5
309
CELLMARGIN_END
 94
        6
 95
        1
302
GRIDFORMAT
  1
GRIDFORMAT_BEGIN
 90
        0
 91
        1
 62
     0
 92
       -2
340
0
 93
        0
 40
1.125
309
GRIDFORMAT_END
 95
        2
302
GRIDFORMAT
  1
GRIDFORMAT_BEGIN
 90
        0
 91
        1
 62
     0
 92
       -2
340
0
 93
        0
 40
1.125
309
GRIDFORMAT_END
 95
        4
302
GRIDFORMAT
  1
GRIDFORMAT_BEGIN
 90
        0
 91
        1
 62
     0
 92
       -2
340
0
 93
        0
 40
1.125
309
GRIDFORMAT_END
 95
        8
302
GRIDFORMAT
  1
GRIDFORMAT_BEGIN
 90
        0
 91
        1
 62
     0
 92
       -2
340
0
 93
        0
 40
1.125
309
GRIDFORMAT_END
 95
       16
302
GRIDFORMAT
  1
GRIDFORMAT_BEGIN
 90
        0
 91
        1
 62
     0
 92
       -2
340
0
 93
        0
 40
1.125
309
GRIDFORMAT_END
 95
       32
302
GRIDFORMAT
  1
GRIDFORMAT_BEGIN
 90
        0
 91
        1
 62
     0
 92
       -2
340
0
 93
        0
 40
1.125
309
GRIDFORMAT_END
309
TABLEFORMAT_END
  1
CELLSTYLE_BEGIN
 90
        3
 91
        2
300
_DATA
309
CELLSTYLE_END
  0
XRECORD
  5
E008
102
{ACAD_REACTORS
330
DFC0
102
}
330
DFC0
100
AcDbXrecord
280
     1
102
ACAD_ROUNDTRIP_PRE2007_TABLESTYLE
 90
      512
 91
        0
  1

 92
      512
 93
        0
  2

 94
      512
 95
        0
  3

  0
XRECORD
  5
DFE3
102
{ACAD_REACTORS
330
DFE2
102
}
330
DFE2
100
AcDbXrecord
280
     1
102
RTVSPost2010Prop28
280
     1
102
RTVSPost2010PropOp28
 70
     1
102
RTVSPost2010Prop29
280
     1
102
RTVSPost2010PropOp29
 70
     1
102
RTVSPost2010Prop30
280
     0
102
RTVSPost2010PropOp30
 70
     1
102
RTVSPost2010Prop31
280
     0
102
RTVSPost2010PropOp31
 70
     1
102
RTVSPost2010Prop32
280
     0
102
RTVSPost2010PropOp32
 70
     1
102
RTVSPost2010Prop33
280
     0
102
RTVSPost2010PropOp33
 70
     1
102
RTVSPost2010Prop34
280
     0
102
RTVSPost2010PropOp34
 70
     1
102
RTVSPost2010Prop35
280
     0
102
RTVSPost2010PropOp35
 70
     1
102
RTVSPost2010Prop36
280
     0
102
RTVSPost2010PropOp36
 70
     1
102
RTVSPost2010Prop37
 90
       50
102
RTVSPost2010PropOp37
 70
     1
102
RTVSPost2010Prop38
140
0.0
102
RTVSPost2010PropOp38
 70
     1
102
RTVSPost2010Prop39
140
1.0
102
RTVSPost2010PropOp39
 70
     1
102
RTVSPost2010Prop40
 90
        0
102
RTVSPost2010PropOp40
 70
     1
102
RTVSPost2010Prop41ColorIndex
 90
       18
102
RTVSPost2010Prop41ColorRGB
 90
        0
102
RTVSPost2010PropOp41
 70
     1
102
RTVSPost2010Prop42
 90
       50
102
RTVSPost2010PropOp42
 70
     1
102
RTVSPost2010Prop43
 90
        3
102
RTVSPost2010PropOp43
 70
     1
102
RTVSPost2010Prop44ColorIndex
 90
        5
102
RTVSPost2010Prop44ColorRGB
 90
      255
102
RTVSPost2010PropOp44
 70
     1
102
RTVSPost2010Prop45
280
     0
102
RTVSPost2010PropOp45
 70
     1
102
RTVSPost2010Prop46
 90
       50
102
RTVSPost2010PropOp46
 70
     1
102
RTVSPost2010Prop47
 90
       50
102
RTVSPost2010PropOp47
 70
     1
102
RTVSPost2010Prop48
 90
       50
102
RTVSPost2010PropOp48
 70
     1
102
RTVSPost2010Prop49
280
     0
102
RTVSPost2010PropOp49
 70
     1
102
RTVSPost2010Prop50
 90
       50
102
RTVSPost2010PropOp50
 70
     1
102
RTVSPost2010Prop51ColorIndex
 90
      256
102
RTVSPost2010Prop51ColorRGB
 90
-16777216
102
RTVSPost2010PropOp51
 70
     0
102
RTVSPost2010Prop52
140
1.0
102
RTVSPost2010PropOp52
 70
     0
102
RTVSPost2010Prop53
 90
        2
102
RTVSPost2010PropOp53
 70
     1
102
RTVSPost2010Prop54
  1
strokes_ogs.tif
102
RTVSPost2010PropOp54
 70
     1
102
RTVSPost2010Prop55
280
     0
102
RTVSPost2010PropOp55
 70
     1
102
RTVSPost2010Prop56
140
1.0
102
RTVSPost2010PropOp56
 70
     1
102
RTVSPost2010Prop57
140
1.0
102
RTVSPost2010PropOp57
 70
     1
102
RTVSPropertyOp0
 70
     1
102
RTVSPropertyOp1
 70
     1
102
RTVSPropertyOp2
 70
     1
102
RTVSPropertyOp3
 70
     1
102
RTVSPropertyOp4
 70
     1
102
RTVSPropertyOp5
 70
     1
102
RTVSPropertyOp6
 70
     1
102
RTVSPropertyOp7
 70
     1
102
RTVSPropertyOp8
 70
     1
102
RTVSPropertyOp9
 70
     1
102
RTVSPropertyOp10
 70
     1
102
RTVSPropertyOp11
 70
     1
102
RTVSPropertyOp12
 70
     1
102
RTVSPropertyOp13
 70
     1
102
RTVSPropertyOp14
 70
     1
102
RTVSPropertyOp15
 70
     1
102
RTVSPropertyOp16
 70
     1
102
RTVSPropertyOp17
 70
     1
102
RTVSPropertyOp18
 70
     1
102
RTVSPropertyOp19
 70
     1
102
RTVSPropertyOp20
 70
     1
102
RTVSPropertyOp21
 70
     1
102
RTVSPropertyOp22
 70
     1
102
RTVSPropertyOp23
 70
     1
102
RTVSPropertyOp24
 70
     1
102
RTVSPropertyOp25
 70
     1
102
RTVSPropertyOp26
 70
     1
102
RTVSPropertyOp27
 70
     1
102
RTVSPropertyOp28
 70
     1
102
RTVSPropertyOp29
 70
     1
102
RTVSPropertyOp30
 70
     1
102
RTVSPropertyOp31
 70
     1
102
RTVSPropertyOp32
 70
     1
102
RTVSPropertyOp33
 70
     1
102
RTVSPropertyOp34
 70
     1
102
RTVSPropertyOp35
 70
     1
102
RTVSPropertyOp36
 70
     1
102
RTVSPropertyOp37
 70
     1
102
RTVSPropertyOp38
 70
     1
102
RTVSPropertyOp39
 70
     1
102
RTVSPropertyOp40
 70
     1
102
RTVSPropertyOp41
 70
     1
102
RTVSPropertyOp42
 70
     1
102
RTVSPropertyOp43
 70
     1
102
RTVSPropertyOp44
 70
     1
102
RTVSPropertyOp45
 70
     1
102
RTVSPropertyOp46
 70
     1
102
RTVSPropertyOp47
 70
     1
102
RTVSPropertyOp48
 70
     1
102
RTVSPropertyOp49
 70
     1
102
RTVSPropertyOp50
 70
     1
102
RTVSPropertyOp51
 70
     0
102
RTVSPropertyOp52
 70
     0
102
RTVSPropertyOp53
 70
     1
102
RTVSPropertyOp54
 70
     1
102
RTVSPropertyOp55
 70
     1
102
RTVSPropertyOp56
 70
     1
102
RTVSPropertyOp57
 70
     1
102
RTVSPropertyOp58
 70
     1
102
RTVSPropertyOp59
 70
     1
102
RTVSPropertyOp60
 70
     1
102
RTVSPropertyOp61
 70
     1
102
RTVSPropertyOp62
 70
     1
  0
XRECORD
  5
DFE1
102
{ACAD_REACTORS
330
DFE0
102
}
330
DFE0
100
AcDbXrecord
280
     1
102
RTVSPost2010Prop28
280
     0
102
RTVSPost2010PropOp28
 70
     1
102
RTVSPost2010Prop29
280
     1
102
RTVSPost2010PropOp29
 70
     1
102
RTVSPost2010Prop30
280
     1
102
RTVSPost2010PropOp30
 70
     1
102
RTVSPost2010Prop31
280
     0
102
RTVSPost2010PropOp31
 70
     1
102
RTVSPost2010Prop32
280
     0
102
RTVSPost2010PropOp32
 70
     1
102
RTVSPost2010Prop33
280
     0
102
RTVSPost2010PropOp33
 70
     1
102
RTVSPost2010Prop34
280
     0
102
RTVSPost2010PropOp34
 70
     1
102
RTVSPost2010Prop35
280
     0
102
RTVSPost2010PropOp35
 70
     1
102
RTVSPost2010Prop36
280
     0
102
RTVSPost2010PropOp36
 70
     1
102
RTVSPost2010Prop37
 90
       50
102
RTVSPost2010PropOp37
 70
     1
102
RTVSPost2010Prop38
140
0.0
102
RTVSPost2010PropOp38
 70
     1
102
RTVSPost2010Prop39
140
1.0
102
RTVSPost2010PropOp39
 70
     1
102
RTVSPost2010Prop40
 90
        0
102
RTVSPost2010PropOp40
 70
     1
102
RTVSPost2010Prop41ColorIndex
 90
       18
102
RTVSPost2010Prop41ColorRGB
 90
        0
102
RTVSPost2010PropOp41
 70
     1
102
RTVSPost2010Prop42
 90
       50
102
RTVSPost2010PropOp42
 70
     1
102
RTVSPost2010Prop43
 90
        3
102
RTVSPost2010PropOp43
 70
     1
102
RTVSPost2010Prop44ColorIndex
 90
        5
102
RTVSPost2010Prop44ColorRGB
 90
      255
102
RTVSPost2010PropOp44
 70
     1
102
RTVSPost2010Prop45
280
     0
102
RTVSPost2010PropOp45
 70
     1
102
RTVSPost2010Prop46
 90
       50
102
RTVSPost2010PropOp46
 70
     1
102
RTVSPost2010Prop47
 90
       50
102
RTVSPost2010PropOp47
 70
     1
102
RTVSPost2010Prop48
 90
       50
102
RTVSPost2010PropOp48
 70
     1
102
RTVSPost2010Prop49
280
     0
102
RTVSPost2010PropOp49
 70
     1
102
RTVSPost2010Prop50
 90
       50
102
RTVSPost2010PropOp50
 70
     1
102
RTVSPost2010Prop51ColorIndex
 90
      256
102
RTVSPost2010Prop51ColorRGB
 90
-16777216
102
RTVSPost2010PropOp51
 70
     0
102
RTVSPost2010Prop52
140
1.0
102
RTVSPost2010PropOp52
 70
     0
102
RTVSPost2010Prop53
 90
        2
102
RTVSPost2010PropOp53
 70
     1
102
RTVSPost2010Prop54
  1
strokes_ogs.tif
102
RTVSPost2010PropOp54
 70
     1
102
RTVSPost2010Prop55
280
     0
102
RTVSPost2010PropOp55
 70
     1
102
RTVSPost2010Prop56
140
1.0
102
RTVSPost2010PropOp56
 70
     1
102
RTVSPost2010Prop57
140
1.0
102
RTVSPost2010PropOp57
 70
     1
102
RTVSPropertyOp0
 70
     1
102
RTVSPropertyOp1
 70
     1
102
RTVSPropertyOp2
 70
     1
102
RTVSPropertyOp3
 70
     1
102
RTVSPropertyOp4
 70
     1
102
RTVSPropertyOp5
 70
     1
102
RTVSPropertyOp6
 70
     1
102
RTVSPropertyOp7
 70
     1
102
RTVSPropertyOp8
 70
     1
102
RTVSPropertyOp9
 70
     1
102
RTVSPropertyOp10
 70
     1
102
RTVSPropertyOp11
 70
     1
102
RTVSPropertyOp12
 70
     1
102
RTVSPropertyOp13
 70
     1
102
RTVSPropertyOp14
 70
     1
102
RTVSPropertyOp15
 70
     1
102
RTVSPropertyOp16
 70
     1
102
RTVSPropertyOp17
 70
     1
102
RTVSPropertyOp18
 70
     1
102
RTVSPropertyOp19
 70
     1
102
RTVSPropertyOp20
 70
     1
102
RTVSPropertyOp21
 70
     1
102
RTVSPropertyOp22
 70
     1
102
RTVSPropertyOp23
 70
     1
102
RTVSPropertyOp24
 70
     1
102
RTVSPropertyOp25
 70
     1
102
RTVSPropertyOp26
 70
     1
102
RTVSPropertyOp27
 70
     1
102
RTVSPropertyOp28
 70
     1
102
RTVSPropertyOp29
 70
     1
102
RTVSPropertyOp30
 70
     1
102
RTVSPropertyOp31
 70
     1
102
RTVSPropertyOp32
 70
     1
102
RTVSPropertyOp33
 70
     1
102
RTVSPropertyOp34
 70
     1
102
RTVSPropertyOp35
 70
     1
102
RTVSPropertyOp36
 70
     1
102
RTVSPropertyOp37
 70
     1
102
RTVSPropertyOp38
 70
     1
102
RTVSPropertyOp39
 70
     1
102
RTVSPropertyOp40
 70
     1
102
RTVSPropertyOp41
 70
     1
102
RTVSPropertyOp42
 70
     1
102
RTVSPropertyOp43
 70
     1
102
RTVSPropertyOp44
 70
     1
102
RTVSPropertyOp45
 70
     1
102
RTVSPropertyOp46
 70
     1
102
RTVSPropertyOp47
 70
     1
102
RTVSPropertyOp48
 70
     1
102
RTVSPropertyOp49
 70
     1
102
RTVSPropertyOp50
 70
     1
102
RTVSPropertyOp51
 70
     0
102
RTVSPropertyOp52
 70
     0
102
RTVSPropertyOp53
 70
     1
102
RTVSPropertyOp54
 70
     1
102
RTVSPropertyOp55
 70
     1
102
RTVSPropertyOp56
 70
     1
102
RTVSPropertyOp57
 70
     1
102
RTVSPropertyOp58
 70
     1
102
RTVSPropertyOp59
 70
     1
102
RTVSPropertyOp60
 70
     1
102
RTVSPropertyOp61
 70
     1
102
RTVSPropertyOp62
 70
     1
  0
XRECORD
  5
DFEF
102
{ACAD_REACTORS
330
DFEE
102
}
330
DFEE
100
AcDbXrecord
280
     1
102
RTVSPost2010Prop28
280
     0
102
RTVSPost2010PropOp28
 70
     1
102
RTVSPost2010Prop29
280
     1
102
RTVSPost2010PropOp29
 70
     1
102
RTVSPost2010Prop30
280
     1
102
RTVSPost2010PropOp30
 70
     1
102
RTVSPost2010Prop31
280
     0
102
RTVSPost2010PropOp31
 70
     1
102
RTVSPost2010Prop32
280
     0
102
RTVSPost2010PropOp32
 70
     1
102
RTVSPost2010Prop33
280
     0
102
RTVSPost2010PropOp33
 70
     1
102
RTVSPost2010Prop34
280
     0
102
RTVSPost2010PropOp34
 70
     1
102
RTVSPost2010Prop35
280
     0
102
RTVSPost2010PropOp35
 70
     1
102
RTVSPost2010Prop36
280
     0
102
RTVSPost2010PropOp36
 70
     1
102
RTVSPost2010Prop37
 90
       50
102
RTVSPost2010PropOp37
 70
     1
102
RTVSPost2010Prop38
140
0.0
102
RTVSPost2010PropOp38
 70
     1
102
RTVSPost2010Prop39
140
1.0
102
RTVSPost2010PropOp39
 70
     1
102
RTVSPost2010Prop40
 90
        0
102
RTVSPost2010PropOp40
 70
     1
102
RTVSPost2010Prop41ColorIndex
 90
       18
102
RTVSPost2010Prop41ColorRGB
 90
        0
102
RTVSPost2010PropOp41
 70
     1
102
RTVSPost2010Prop42
 90
       50
102
RTVSPost2010PropOp42
 70
     1
102
RTVSPost2010Prop43
 90
        3
102
RTVSPost2010PropOp43
 70
     1
102
RTVSPost2010Prop44ColorIndex
 90
        5
102
RTVSPost2010Prop44ColorRGB
 90
      255
102
RTVSPost2010PropOp44
 70
     1
102
RTVSPost2010Prop45
280
     0
102
RTVSPost2010PropOp45
 70
     1
102
RTVSPost2010Prop46
 90
       50
102
RTVSPost2010PropOp46
 70
     1
102
RTVSPost2010Prop47
 90
       50
102
RTVSPost2010PropOp47
 70
     1
102
RTVSPost2010Prop48
 90
       50
102
RTVSPost2010PropOp48
 70
     1
102
RTVSPost2010Prop49
280
     0
102
RTVSPost2010PropOp49
 70
     1
102
RTVSPost2010Prop50
 90
       50
102
RTVSPost2010PropOp50
 70
     1
102
RTVSPost2010Prop51ColorIndex
 90
      256
102
RTVSPost2010Prop51ColorRGB
 90
-16777216
102
RTVSPost2010PropOp51
 70
     0
102
RTVSPost2010Prop52
140
1.0
102
RTVSPost2010PropOp52
 70
     0
102
RTVSPost2010Prop53
 90
        2
102
RTVSPost2010PropOp53
 70
     1
102
RTVSPost2010Prop54
  1
strokes_ogs.tif
102
RTVSPost2010PropOp54
 70
     1
102
RTVSPost2010Prop55
280
     0
102
RTVSPost2010PropOp55
 70
     1
102
RTVSPost2010Prop56
140
1.0
102
RTVSPost2010PropOp56
 70
     1
102
RTVSPost2010Prop57
140
1.0
102
RTVSPost2010PropOp57
 70
     1
102
RTVSPropertyOp0
 70
     1
102
RTVSPropertyOp1
 70
     1
102
RTVSPropertyOp2
 70
     1
102
RTVSPropertyOp3
 70
     1
102
RTVSPropertyOp4
 70
     1
102
RTVSPropertyOp5
 70
     1
102
RTVSPropertyOp6
 70
     1
102
RTVSPropertyOp7
 70
     1
102
RTVSPropertyOp8
 70
     1
102
RTVSPropertyOp9
 70
     1
102
RTVSPropertyOp10
 70
     1
102
RTVSPropertyOp11
 70
     1
102
RTVSPropertyOp12
 70
     1
102
RTVSPropertyOp13
 70
     1
102
RTVSPropertyOp14
 70
     1
102
RTVSPropertyOp15
 70
     1
102
RTVSPropertyOp16
 70
     1
102
RTVSPropertyOp17
 70
     1
102
RTVSPropertyOp18
 70
     1
102
RTVSPropertyOp19
 70
     1
102
RTVSPropertyOp20
 70
     1
102
RTVSPropertyOp21
 70
     1
102
RTVSPropertyOp22
 70
     1
102
RTVSPropertyOp23
 70
     1
102
RTVSPropertyOp24
 70
     1
102
RTVSPropertyOp25
 70
     1
102
RTVSPropertyOp26
 70
     1
102
RTVSPropertyOp27
 70
     1
102
RTVSPropertyOp28
 70
     1
102
RTVSPropertyOp29
 70
     1
102
RTVSPropertyOp30
 70
     1
102
RTVSPropertyOp31
 70
     1
102
RTVSPropertyOp32
 70
     1
102
RTVSPropertyOp33
 70
     1
102
RTVSPropertyOp34
 70
     1
102
RTVSPropertyOp35
 70
     1
102
RTVSPropertyOp36
 70
     1
102
RTVSPropertyOp37
 70
     1
102
RTVSPropertyOp38
 70
     1
102
RTVSPropertyOp39
 70
     1
102
RTVSPropertyOp40
 70
     1
102
RTVSPropertyOp41
 70
     1
102
RTVSPropertyOp42
 70
     1
102
RTVSPropertyOp43
 70
     1
102
RTVSPropertyOp44
 70
     1
102
RTVSPropertyOp45
 70
     1
102
RTVSPropertyOp46
 70
     1
102
RTVSPropertyOp47
 70
     1
102
RTVSPropertyOp48
 70
     1
102
RTVSPropertyOp49
 70
     1
102
RTVSPropertyOp50
 70
     1
102
RTVSPropertyOp51
 70
     0
102
RTVSPropertyOp52
 70
     0
102
RTVSPropertyOp53
 70
     1
102
RTVSPropertyOp54
 70
     1
102
RTVSPropertyOp55
 70
     1
102
RTVSPropertyOp56
 70
     1
102
RTVSPropertyOp57
 70
     1
102
RTVSPropertyOp58
 70
     1
102
RTVSPropertyOp59
 70
     1
102
RTVSPropertyOp60
 70
     1
102
RTVSPropertyOp61
 70
     1
102
RTVSPropertyOp62
 70
     1
  0
XRECORD
  5
DFF7
102
{ACAD_REACTORS
330
DFF6
102
}
330
DFF6
100
AcDbXrecord
280
     1
102
RTVSPost2010Prop28
280
     0
102
RTVSPost2010PropOp28
 70
     1
102
RTVSPost2010Prop29
280
     1
102
RTVSPost2010PropOp29
 70
     1
102
RTVSPost2010Prop30
280
     1
102
RTVSPost2010PropOp30
 70
     1
102
RTVSPost2010Prop31
280
     0
102
RTVSPost2010PropOp31
 70
     1
102
RTVSPost2010Prop32
280
     0
102
RTVSPost2010PropOp32
 70
     1
102
RTVSPost2010Prop33
280
     0
102
RTVSPost2010PropOp33
 70
     1
102
RTVSPost2010Prop34
280
     0
102
RTVSPost2010PropOp34
 70
     1
102
RTVSPost2010Prop35
280
     0
102
RTVSPost2010PropOp35
 70
     1
102
RTVSPost2010Prop36
280
     0
102
RTVSPost2010PropOp36
 70
     1
102
RTVSPost2010Prop37
 90
       50
102
RTVSPost2010PropOp37
 70
     1
102
RTVSPost2010Prop38
140
0.0
102
RTVSPost2010PropOp38
 70
     1
102
RTVSPost2010Prop39
140
1.0
102
RTVSPost2010PropOp39
 70
     1
102
RTVSPost2010Prop40
 90
        0
102
RTVSPost2010PropOp40
 70
     1
102
RTVSPost2010Prop41ColorIndex
 90
       18
102
RTVSPost2010Prop41ColorRGB
 90
        0
102
RTVSPost2010PropOp41
 70
     1
102
RTVSPost2010Prop42
 90
       50
102
RTVSPost2010PropOp42
 70
     1
102
RTVSPost2010Prop43
 90
        3
102
RTVSPost2010PropOp43
 70
     1
102
RTVSPost2010Prop44ColorIndex
 90
        5
102
RTVSPost2010Prop44ColorRGB
 90
      255
102
RTVSPost2010PropOp44
 70
     1
102
RTVSPost2010Prop45
280
     0
102
RTVSPost2010PropOp45
 70
     1
102
RTVSPost2010Prop46
 90
       50
102
RTVSPost2010PropOp46
 70
     1
102
RTVSPost2010Prop47
 90
       50
102
RTVSPost2010PropOp47
 70
     1
102
RTVSPost2010Prop48
 90
       50
102
RTVSPost2010PropOp48
 70
     1
102
RTVSPost2010Prop49
280
     0
102
RTVSPost2010PropOp49
 70
     1
102
RTVSPost2010Prop50
 90
       50
102
RTVSPost2010PropOp50
 70
     1
102
RTVSPost2010Prop51ColorIndex
 90
      256
102
RTVSPost2010Prop51ColorRGB
 90
-16777216
102
RTVSPost2010PropOp51
 70
     0
102
RTVSPost2010Prop52
140
1.0
102
RTVSPost2010PropOp52
 70
     0
102
RTVSPost2010Prop53
 90
        2
102
RTVSPost2010PropOp53
 70
     1
102
RTVSPost2010Prop54
  1
strokes_ogs.tif
102
RTVSPost2010PropOp54
 70
     1
102
RTVSPost2010Prop55
280
     0
102
RTVSPost2010PropOp55
 70
     1
102
RTVSPost2010Prop56
140
1.0
102
RTVSPost2010PropOp56
 70
     1
102
RTVSPost2010Prop57
140
1.0
102
RTVSPost2010PropOp57
 70
     1
102
RTVSPropertyOp0
 70
     1
102
RTVSPropertyOp1
 70
     1
102
RTVSPropertyOp2
 70
     1
102
RTVSPropertyOp3
 70
     1
102
RTVSPropertyOp4
 70
     1
102
RTVSPropertyOp5
 70
     1
102
RTVSPropertyOp6
 70
     1
102
RTVSPropertyOp7
 70
     1
102
RTVSPropertyOp8
 70
     1
102
RTVSPropertyOp9
 70
     1
102
RTVSPropertyOp10
 70
     1
102
RTVSPropertyOp11
 70
     1
102
RTVSPropertyOp12
 70
     1
102
RTVSPropertyOp13
 70
     1
102
RTVSPropertyOp14
 70
     1
102
RTVSPropertyOp15
 70
     1
102
RTVSPropertyOp16
 70
     1
102
RTVSPropertyOp17
 70
     1
102
RTVSPropertyOp18
 70
     1
102
RTVSPropertyOp19
 70
     1
102
RTVSPropertyOp20
 70
     1
102
RTVSPropertyOp21
 70
     1
102
RTVSPropertyOp22
 70
     1
102
RTVSPropertyOp23
 70
     1
102
RTVSPropertyOp24
 70
     1
102
RTVSPropertyOp25
 70
     1
102
RTVSPropertyOp26
 70
     1
102
RTVSPropertyOp27
 70
     1
102
RTVSPropertyOp28
 70
     1
102
RTVSPropertyOp29
 70
     1
102
RTVSPropertyOp30
 70
     1
102
RTVSPropertyOp31
 70
     1
102
RTVSPropertyOp32
 70
     1
102
RTVSPropertyOp33
 70
     1
102
RTVSPropertyOp34
 70
     1
102
RTVSPropertyOp35
 70
     1
102
RTVSPropertyOp36
 70
     1
102
RTVSPropertyOp37
 70
     1
102
RTVSPropertyOp38
 70
     1
102
RTVSPropertyOp39
 70
     1
102
RTVSPropertyOp40
 70
     1
102
RTVSPropertyOp41
 70
     1
102
RTVSPropertyOp42
 70
     1
102
RTVSPropertyOp43
 70
     1
102
RTVSPropertyOp44
 70
     1
102
RTVSPropertyOp45
 70
     1
102
RTVSPropertyOp46
 70
     1
102
RTVSPropertyOp47
 70
     1
102
RTVSPropertyOp48
 70
     1
102
RTVSPropertyOp49
 70
     1
102
RTVSPropertyOp50
 70
     1
102
RTVSPropertyOp51
 70
     0
102
RTVSPropertyOp52
 70
     0
102
RTVSPropertyOp53
 70
     1
102
RTVSPropertyOp54
 70
     1
102
RTVSPropertyOp55
 70
     1
102
RTVSPropertyOp56
 70
     1
102
RTVSPropertyOp57
 70
     1
102
RTVSPropertyOp58
 70
     1
102
RTVSPropertyOp59
 70
     1
102
RTVSPropertyOp60
 70
     1
102
RTVSPropertyOp61
 70
     1
102
RTVSPropertyOp62
 70
     1
  0
XRECORD
  5
DFE9
102
{ACAD_REACTORS
330
DFE8
102
}
330
DFE8
100
AcDbXrecord
280
     1
102
RTVSPost2010Prop28
280
     0
102
RTVSPost2010PropOp28
 70
     1
102
RTVSPost2010Prop29
280
     1
102
RTVSPost2010PropOp29
 70
     1
102
RTVSPost2010Prop30
280
     1
102
RTVSPost2010PropOp30
 70
     1
102
RTVSPost2010Prop31
280
     0
102
RTVSPost2010PropOp31
 70
     1
102
RTVSPost2010Prop32
280
     0
102
RTVSPost2010PropOp32
 70
     1
102
RTVSPost2010Prop33
280
     0
102
RTVSPost2010PropOp33
 70
     1
102
RTVSPost2010Prop34
280
     0
102
RTVSPost2010PropOp34
 70
     1
102
RTVSPost2010Prop35
280
     0
102
RTVSPost2010PropOp35
 70
     1
102
RTVSPost2010Prop36
280
     0
102
RTVSPost2010PropOp36
 70
     1
102
RTVSPost2010Prop37
 90
       50
102
RTVSPost2010PropOp37
 70
     1
102
RTVSPost2010Prop38
140
0.0
102
RTVSPost2010PropOp38
 70
     1
102
RTVSPost2010Prop39
140
1.0
102
RTVSPost2010PropOp39
 70
     1
102
RTVSPost2010Prop40
 90
        0
102
RTVSPost2010PropOp40
 70
     1
102
RTVSPost2010Prop41ColorIndex
 90
       18
102
RTVSPost2010Prop41ColorRGB
 90
        0
102
RTVSPost2010PropOp41
 70
     1
102
RTVSPost2010Prop42
 90
       50
102
RTVSPost2010PropOp42
 70
     1
102
RTVSPost2010Prop43
 90
        3
102
RTVSPost2010PropOp43
 70
     1
102
RTVSPost2010Prop44ColorIndex
 90
        5
102
RTVSPost2010Prop44ColorRGB
 90
      255
102
RTVSPost2010PropOp44
 70
     1
102
RTVSPost2010Prop45
280
     0
102
RTVSPost2010PropOp45
 70
     1
102
RTVSPost2010Prop46
 90
       50
102
RTVSPost2010PropOp46
 70
     1
102
RTVSPost2010Prop47
 90
       50
102
RTVSPost2010PropOp47
 70
     1
102
RTVSPost2010Prop48
 90
       50
102
RTVSPost2010PropOp48
 70
     1
102
RTVSPost2010Prop49
280
     0
102
RTVSPost2010PropOp49
 70
     1
102
RTVSPost2010Prop50
 90
       50
102
RTVSPost2010PropOp50
 70
     1
102
RTVSPost2010Prop51ColorIndex
 90
      256
102
RTVSPost2010Prop51ColorRGB
 90
-16777216
102
RTVSPost2010PropOp51
 70
     0
102
RTVSPost2010Prop52
140
1.0
102
RTVSPost2010PropOp52
 70
     0
102
RTVSPost2010Prop53
 90
        2
102
RTVSPost2010PropOp53
 70
     1
102
RTVSPost2010Prop54
  1
strokes_ogs.tif
102
RTVSPost2010PropOp54
 70
     1
102
RTVSPost2010Prop55
280
     0
102
RTVSPost2010PropOp55
 70
     1
102
RTVSPost2010Prop56
140
1.0
102
RTVSPost2010PropOp56
 70
     1
102
RTVSPost2010Prop57
140
1.0
102
RTVSPost2010PropOp57
 70
     1
102
RTVSPropertyOp0
 70
     1
102
RTVSPropertyOp1
 70
     1
102
RTVSPropertyOp2
 70
     1
102
RTVSPropertyOp3
 70
     1
102
RTVSPropertyOp4
 70
     1
102
RTVSPropertyOp5
 70
     1
102
RTVSPropertyOp6
 70
     1
102
RTVSPropertyOp7
 70
     1
102
RTVSPropertyOp8
 70
     1
102
RTVSPropertyOp9
 70
     1
102
RTVSPropertyOp10
 70
     1
102
RTVSPropertyOp11
 70
     1
102
RTVSPropertyOp12
 70
     1
102
RTVSPropertyOp13
 70
     1
102
RTVSPropertyOp14
 70
     1
102
RTVSPropertyOp15
 70
     1
102
RTVSPropertyOp16
 70
     1
102
RTVSPropertyOp17
 70
     1
102
RTVSPropertyOp18
 70
     1
102
RTVSPropertyOp19
 70
     1
102
RTVSPropertyOp20
 70
     1
102
RTVSPropertyOp21
 70
     1
102
RTVSPropertyOp22
 70
     1
102
RTVSPropertyOp23
 70
     1
102
RTVSPropertyOp24
 70
     1
102
RTVSPropertyOp25
 70
     1
102
RTVSPropertyOp26
 70
     1
102
RTVSPropertyOp27
 70
     1
102
RTVSPropertyOp28
 70
     1
102
RTVSPropertyOp29
 70
     1
102
RTVSPropertyOp30
 70
     1
102
RTVSPropertyOp31
 70
     1
102
RTVSPropertyOp32
 70
     1
102
RTVSPropertyOp33
 70
     1
102
RTVSPropertyOp34
 70
     1
102
RTVSPropertyOp35
 70
     1
102
RTVSPropertyOp36
 70
     1
102
RTVSPropertyOp37
 70
     1
102
RTVSPropertyOp38
 70
     1
102
RTVSPropertyOp39
 70
     1
102
RTVSPropertyOp40
 70
     1
102
RTVSPropertyOp41
 70
     1
102
RTVSPropertyOp42
 70
     1
102
RTVSPropertyOp43
 70
     1
102
RTVSPropertyOp44
 70
     1
102
RTVSPropertyOp45
 70
     1
102
RTVSPropertyOp46
 70
     1
102
RTVSPropertyOp47
 70
     1
102
RTVSPropertyOp48
 70
     1
102
RTVSPropertyOp49
 70
     1
102
RTVSPropertyOp50
 70
     1
102
RTVSPropertyOp51
 70
     0
102
RTVSPropertyOp52
 70
     0
102
RTVSPropertyOp53
 70
     1
102
RTVSPropertyOp54
 70
     1
102
RTVSPropertyOp55
 70
     1
102
RTVSPropertyOp56
 70
     1
102
RTVSPropertyOp57
 70
     1
102
RTVSPropertyOp58
 70
     1
102
RTVSPropertyOp59
 70
     1
102
RTVSPropertyOp60
 70
     1
102
RTVSPropertyOp61
 70
     1
102
RTVSPropertyOp62
 70
     1
  0
XRECORD
  5
DFED
102
{ACAD_REACTORS
330
DFEC
102
}
330
DFEC
100
AcDbXrecord
280
     1
102
RTVSPost2010Prop28
280
     0
102
RTVSPost2010PropOp28
 70
     1
102
RTVSPost2010Prop29
280
     1
102
RTVSPost2010PropOp29
 70
     1
102
RTVSPost2010Prop30
280
     1
102
RTVSPost2010PropOp30
 70
     1
102
RTVSPost2010Prop31
280
     0
102
RTVSPost2010PropOp31
 70
     1
102
RTVSPost2010Prop32
280
     0
102
RTVSPost2010PropOp32
 70
     1
102
RTVSPost2010Prop33
280
     0
102
RTVSPost2010PropOp33
 70
     1
102
RTVSPost2010Prop34
280
     0
102
RTVSPost2010PropOp34
 70
     1
102
RTVSPost2010Prop35
280
     0
102
RTVSPost2010PropOp35
 70
     1
102
RTVSPost2010Prop36
280
     0
102
RTVSPost2010PropOp36
 70
     1
102
RTVSPost2010Prop37
 90
       50
102
RTVSPost2010PropOp37
 70
     1
102
RTVSPost2010Prop38
140
0.0
102
RTVSPost2010PropOp38
 70
     1
102
RTVSPost2010Prop39
140
1.0
102
RTVSPost2010PropOp39
 70
     1
102
RTVSPost2010Prop40
 90
        0
102
RTVSPost2010PropOp40
 70
     1
102
RTVSPost2010Prop41ColorIndex
 90
       18
102
RTVSPost2010Prop41ColorRGB
 90
        0
102
RTVSPost2010PropOp41
 70
     1
102
RTVSPost2010Prop42
 90
       50
102
RTVSPost2010PropOp42
 70
     1
102
RTVSPost2010Prop43
 90
        3
102
RTVSPost2010PropOp43
 70
     1
102
RTVSPost2010Prop44ColorIndex
 90
        5
102
RTVSPost2010Prop44ColorRGB
 90
      255
102
RTVSPost2010PropOp44
 70
     1
102
RTVSPost2010Prop45
280
     0
102
RTVSPost2010PropOp45
 70
     1
102
RTVSPost2010Prop46
 90
       50
102
RTVSPost2010PropOp46
 70
     1
102
RTVSPost2010Prop47
 90
       50
102
RTVSPost2010PropOp47
 70
     1
102
RTVSPost2010Prop48
 90
       50
102
RTVSPost2010PropOp48
 70
     1
102
RTVSPost2010Prop49
280
     0
102
RTVSPost2010PropOp49
 70
     1
102
RTVSPost2010Prop50
 90
       50
102
RTVSPost2010PropOp50
 70
     1
102
RTVSPost2010Prop51ColorIndex
 90
      256
102
RTVSPost2010Prop51ColorRGB
 90
-16777216
102
RTVSPost2010PropOp51
 70
     0
102
RTVSPost2010Prop52
140
1.0
102
RTVSPost2010PropOp52
 70
     0
102
RTVSPost2010Prop53
 90
        2
102
RTVSPost2010PropOp53
 70
     1
102
RTVSPost2010Prop54
  1
strokes_ogs.tif
102
RTVSPost2010PropOp54
 70
     1
102
RTVSPost2010Prop55
280
     0
102
RTVSPost2010PropOp55
 70
     1
102
RTVSPost2010Prop56
140
1.0
102
RTVSPost2010PropOp56
 70
     1
102
RTVSPost2010Prop57
140
1.0
102
RTVSPost2010PropOp57
 70
     1
102
RTVSPropertyOp0
 70
     1
102
RTVSPropertyOp1
 70
     1
102
RTVSPropertyOp2
 70
     1
102
RTVSPropertyOp3
 70
     1
102
RTVSPropertyOp4
 70
     1
102
RTVSPropertyOp5
 70
     1
102
RTVSPropertyOp6
 70
     1
102
RTVSPropertyOp7
 70
     1
102
RTVSPropertyOp8
 70
     1
102
RTVSPropertyOp9
 70
     1
102
RTVSPropertyOp10
 70
     1
102
RTVSPropertyOp11
 70
     1
102
RTVSPropertyOp12
 70
     1
102
RTVSPropertyOp13
 70
     1
102
RTVSPropertyOp14
 70
     1
102
RTVSPropertyOp15
 70
     1
102
RTVSPropertyOp16
 70
     1
102
RTVSPropertyOp17
 70
     1
102
RTVSPropertyOp18
 70
     1
102
RTVSPropertyOp19
 70
     1
102
RTVSPropertyOp20
 70
     1
102
RTVSPropertyOp21
 70
     1
102
RTVSPropertyOp22
 70
     1
102
RTVSPropertyOp23
 70
     1
102
RTVSPropertyOp24
 70
     1
102
RTVSPropertyOp25
 70
     1
102
RTVSPropertyOp26
 70
     1
102
RTVSPropertyOp27
 70
     1
102
RTVSPropertyOp28
 70
     1
102
RTVSPropertyOp29
 70
     1
102
RTVSPropertyOp30
 70
     1
102
RTVSPropertyOp31
 70
     1
102
RTVSPropertyOp32
 70
     1
102
RTVSPropertyOp33
 70
     1
102
RTVSPropertyOp34
 70
     1
102
RTVSPropertyOp35
 70
     1
102
RTVSPropertyOp36
 70
     1
102
RTVSPropertyOp37
 70
     1
102
RTVSPropertyOp38
 70
     1
102
RTVSPropertyOp39
 70
     1
102
RTVSPropertyOp40
 70
     1
102
RTVSPropertyOp41
 70
     1
102
RTVSPropertyOp42
 70
     1
102
RTVSPropertyOp43
 70
     1
102
RTVSPropertyOp44
 70
     1
102
RTVSPropertyOp45
 70
     1
102
RTVSPropertyOp46
 70
     1
102
RTVSPropertyOp47
 70
     1
102
RTVSPropertyOp48
 70
     1
102
RTVSPropertyOp49
 70
     1
102
RTVSPropertyOp50
 70
     1
102
RTVSPropertyOp51
 70
     0
102
RTVSPropertyOp52
 70
     0
102
RTVSPropertyOp53
 70
     1
102
RTVSPropertyOp54
 70
     1
102
RTVSPropertyOp55
 70
     1
102
RTVSPropertyOp56
 70
     1
102
RTVSPropertyOp57
 70
     1
102
RTVSPropertyOp58
 70
     1
102
RTVSPropertyOp59
 70
     1
102
RTVSPropertyOp60
 70
     1
102
RTVSPropertyOp61
 70
     1
102
RTVSPropertyOp62
 70
     1
  0
XRECORD
  5
E007
102
{ACAD_REACTORS
330
E006
102
}
330
E006
100
AcDbXrecord
280
     1
102
RTVSPost2010Prop28
280
     0
102
RTVSPost2010PropOp28
 70
     0
102
RTVSPost2010Prop29
280
     1
102
RTVSPost2010PropOp29
 70
     0
102
RTVSPost2010Prop30
280
     1
102
RTVSPost2010PropOp30
 70
     0
102
RTVSPost2010Prop31
280
     0
102
RTVSPost2010PropOp31
 70
     0
102
RTVSPost2010Prop32
280
     0
102
RTVSPost2010PropOp32
 70
     0
102
RTVSPost2010Prop33
280
     0
102
RTVSPost2010PropOp33
 70
     0
102
RTVSPost2010Prop34
280
     0
102
RTVSPost2010PropOp34
 70
     0
102
RTVSPost2010Prop35
280
     0
102
RTVSPost2010PropOp35
 70
     0
102
RTVSPost2010Prop36
280
     0
102
RTVSPost2010PropOp36
 70
     0
102
RTVSPost2010Prop37
 90
       50
102
RTVSPost2010PropOp37
 70
     0
102
RTVSPost2010Prop38
140
0.0
102
RTVSPost2010PropOp38
 70
     0
102
RTVSPost2010Prop39
140
1.0
102
RTVSPost2010PropOp39
 70
     0
102
RTVSPost2010Prop40
 90
        0
102
RTVSPost2010PropOp40
 70
     0
102
RTVSPost2010Prop41ColorIndex
 90
       18
102
RTVSPost2010Prop41ColorRGB
 90
        0
102
RTVSPost2010PropOp41
 70
     0
102
RTVSPost2010Prop42
 90
       50
102
RTVSPost2010PropOp42
 70
     0
102
RTVSPost2010Prop43
 90
        3
102
RTVSPost2010PropOp43
 70
     0
102
RTVSPost2010Prop44ColorIndex
 90
        5
102
RTVSPost2010Prop44ColorRGB
 90
      255
102
RTVSPost2010PropOp44
 70
     0
102
RTVSPost2010Prop45
280
     0
102
RTVSPost2010PropOp45
 70
     0
102
RTVSPost2010Prop46
 90
       50
102
RTVSPost2010PropOp46
 70
     0
102
RTVSPost2010Prop47
 90
       50
102
RTVSPost2010PropOp47
 70
     0
102
RTVSPost2010Prop48
 90
       50
102
RTVSPost2010PropOp48
 70
     0
102
RTVSPost2010Prop49
280
     0
102
RTVSPost2010PropOp49
 70
     0
102
RTVSPost2010Prop50
 90
       50
102
RTVSPost2010PropOp50
 70
     0
102
RTVSPost2010Prop51ColorIndex
 90
      256
102
RTVSPost2010Prop51ColorRGB
 90
-16777216
102
RTVSPost2010PropOp51
 70
     0
102
RTVSPost2010Prop52
140
1.0
102
RTVSPost2010PropOp52
 70
     0
102
RTVSPost2010Prop53
 90
        2
102
RTVSPost2010PropOp53
 70
     0
102
RTVSPost2010Prop54
  1
strokes_ogs.tif
102
RTVSPost2010PropOp54
 70
     0
102
RTVSPost2010Prop55
280
     0
102
RTVSPost2010PropOp55
 70
     0
102
RTVSPost2010Prop56
140
1.0
102
RTVSPost2010PropOp56
 70
     0
102
RTVSPost2010Prop57
140
1.0
102
RTVSPost2010PropOp57
 70
     0
102
RTVSPropertyOp0
 70
     0
102
RTVSPropertyOp1
 70
     0
102
RTVSPropertyOp2
 70
     0
102
RTVSPropertyOp3
 70
     0
102
RTVSPropertyOp4
 70
     0
102
RTVSPropertyOp5
 70
     0
102
RTVSPropertyOp6
 70
     0
102
RTVSPropertyOp7
 70
     0
102
RTVSPropertyOp8
 70
     0
102
RTVSPropertyOp9
 70
     0
102
RTVSPropertyOp10
 70
     0
102
RTVSPropertyOp11
 70
     0
102
RTVSPropertyOp12
 70
     0
102
RTVSPropertyOp13
 70
     0
102
RTVSPropertyOp14
 70
     2
102
RTVSPropertyOp15
 70
     0
102
RTVSPropertyOp16
 70
     0
102
RTVSPropertyOp17
 70
     0
102
RTVSPropertyOp18
 70
     0
102
RTVSPropertyOp19
 70
     0
102
RTVSPropertyOp20
 70
     0
102
RTVSPropertyOp21
 70
     0
102
RTVSPropertyOp22
 70
     0
102
RTVSPropertyOp23
 70
     0
102
RTVSPropertyOp24
 70
     0
102
RTVSPropertyOp25
 70
     0
102
RTVSPropertyOp26
 70
     0
102
RTVSPropertyOp27
 70
     0
102
RTVSPropertyOp28
 70
     0
102
RTVSPropertyOp29
 70
     0
102
RTVSPropertyOp30
 70
     0
102
RTVSPropertyOp31
 70
     0
102
RTVSPropertyOp32
 70
     0
102
RTVSPropertyOp33
 70
     0
102
RTVSPropertyOp34
 70
     0
102
RTVSPropertyOp35
 70
     0
102
RTVSPropertyOp36
 70
     0
102
RTVSPropertyOp37
 70
     0
102
RTVSPropertyOp38
 70
     0
102
RTVSPropertyOp39
 70
     0
102
RTVSPropertyOp40
 70
     0
102
RTVSPropertyOp41
 70
     0
102
RTVSPropertyOp42
 70
     0
102
RTVSPropertyOp43
 70
     0
102
RTVSPropertyOp44
 70
     0
102
RTVSPropertyOp45
 70
     0
102
RTVSPropertyOp46
 70
     0
102
RTVSPropertyOp47
 70
     0
102
RTVSPropertyOp48
 70
     0
102
RTVSPropertyOp49
 70
     0
102
RTVSPropertyOp50
 70
     0
102
RTVSPropertyOp51
 70
     0
102
RTVSPropertyOp52
 70
     0
102
RTVSPropertyOp53
 70
     0
102
RTVSPropertyOp54
 70
     0
102
RTVSPropertyOp55
 70
     0
102
RTVSPropertyOp56
 70
     0
102
RTVSPropertyOp57
 70
     0
102
RTVSPropertyOp58
 70
     0
102
RTVSPropertyOp59
 70
     0
102
RTVSPropertyOp60
 70
     0
102
RTVSPropertyOp61
 70
     0
102
RTVSPropertyOp62
 70
     0
  0
XRECORD
  5
DFF5
102
{ACAD_REACTORS
330
DFF4
102
}
330
DFF4
100
AcDbXrecord
280
     1
102
RTVSPost2010Prop28
280
     0
102
RTVSPost2010PropOp28
 70
     1
102
RTVSPost2010Prop29
280
     1
102
RTVSPost2010PropOp29
 70
     1
102
RTVSPost2010Prop30
280
     1
102
RTVSPost2010PropOp30
 70
     1
102
RTVSPost2010Prop31
280
     0
102
RTVSPost2010PropOp31
 70
     1
102
RTVSPost2010Prop32
280
     0
102
RTVSPost2010PropOp32
 70
     1
102
RTVSPost2010Prop33
280
     0
102
RTVSPost2010PropOp33
 70
     1
102
RTVSPost2010Prop34
280
     0
102
RTVSPost2010PropOp34
 70
     1
102
RTVSPost2010Prop35
280
     0
102
RTVSPost2010PropOp35
 70
     1
102
RTVSPost2010Prop36
280
     0
102
RTVSPost2010PropOp36
 70
     1
102
RTVSPost2010Prop37
 90
       50
102
RTVSPost2010PropOp37
 70
     1
102
RTVSPost2010Prop38
140
0.0
102
RTVSPost2010PropOp38
 70
     1
102
RTVSPost2010Prop39
140
1.0
102
RTVSPost2010PropOp39
 70
     1
102
RTVSPost2010Prop40
 90
        0
102
RTVSPost2010PropOp40
 70
     1
102
RTVSPost2010Prop41ColorIndex
 90
       18
102
RTVSPost2010Prop41ColorRGB
 90
        0
102
RTVSPost2010PropOp41
 70
     1
102
RTVSPost2010Prop42
 90
       50
102
RTVSPost2010PropOp42
 70
     1
102
RTVSPost2010Prop43
 90
        3
102
RTVSPost2010PropOp43
 70
     1
102
RTVSPost2010Prop44ColorIndex
 90
        5
102
RTVSPost2010Prop44ColorRGB
 90
      255
102
RTVSPost2010PropOp44
 70
     1
102
RTVSPost2010Prop45
280
     0
102
RTVSPost2010PropOp45
 70
     1
102
RTVSPost2010Prop46
 90
       50
102
RTVSPost2010PropOp46
 70
     1
102
RTVSPost2010Prop47
 90
       50
102
RTVSPost2010PropOp47
 70
     1
102
RTVSPost2010Prop48
 90
       50
102
RTVSPost2010PropOp48
 70
     1
102
RTVSPost2010Prop49
280
     0
102
RTVSPost2010PropOp49
 70
     1
102
RTVSPost2010Prop50
 90
       50
102
RTVSPost2010PropOp50
 70
     1
102
RTVSPost2010Prop51ColorIndex
 90
      256
102
RTVSPost2010Prop51ColorRGB
 90
-16777216
102
RTVSPost2010PropOp51
 70
     0
102
RTVSPost2010Prop52
140
1.0
102
RTVSPost2010PropOp52
 70
     0
102
RTVSPost2010Prop53
 90
        2
102
RTVSPost2010PropOp53
 70
     1
102
RTVSPost2010Prop54
  1
strokes_ogs.tif
102
RTVSPost2010PropOp54
 70
     1
102
RTVSPost2010Prop55
280
     0
102
RTVSPost2010PropOp55
 70
     1
102
RTVSPost2010Prop56
140
1.0
102
RTVSPost2010PropOp56
 70
     1
102
RTVSPost2010Prop57
140
1.0
102
RTVSPost2010PropOp57
 70
     1
102
RTVSPropertyOp0
 70
     1
102
RTVSPropertyOp1
 70
     1
102
RTVSPropertyOp2
 70
     1
102
RTVSPropertyOp3
 70
     1
102
RTVSPropertyOp4
 70
     1
102
RTVSPropertyOp5
 70
     1
102
RTVSPropertyOp6
 70
     1
102
RTVSPropertyOp7
 70
     1
102
RTVSPropertyOp8
 70
     1
102
RTVSPropertyOp9
 70
     1
102
RTVSPropertyOp10
 70
     1
102
RTVSPropertyOp11
 70
     1
102
RTVSPropertyOp12
 70
     1
102
RTVSPropertyOp13
 70
     1
102
RTVSPropertyOp14
 70
     1
102
RTVSPropertyOp15
 70
     1
102
RTVSPropertyOp16
 70
     1
102
RTVSPropertyOp17
 70
     1
102
RTVSPropertyOp18
 70
     1
102
RTVSPropertyOp19
 70
     1
102
RTVSPropertyOp20
 70
     1
102
RTVSPropertyOp21
 70
     1
102
RTVSPropertyOp22
 70
     1
102
RTVSPropertyOp23
 70
     1
102
RTVSPropertyOp24
 70
     1
102
RTVSPropertyOp25
 70
     1
102
RTVSPropertyOp26
 70
     1
102
RTVSPropertyOp27
 70
     1
102
RTVSPropertyOp28
 70
     1
102
RTVSPropertyOp29
 70
     1
102
RTVSPropertyOp30
 70
     1
102
RTVSPropertyOp31
 70
     1
102
RTVSPropertyOp32
 70
     1
102
RTVSPropertyOp33
 70
     1
102
RTVSPropertyOp34
 70
     1
102
RTVSPropertyOp35
 70
     1
102
RTVSPropertyOp36
 70
     1
102
RTVSPropertyOp37
 70
     1
102
RTVSPropertyOp38
 70
     1
102
RTVSPropertyOp39
 70
     1
102
RTVSPropertyOp40
 70
     1
102
RTVSPropertyOp41
 70
     1
102
RTVSPropertyOp42
 70
     1
102
RTVSPropertyOp43
 70
     1
102
RTVSPropertyOp44
 70
     1
102
RTVSPropertyOp45
 70
     1
102
RTVSPropertyOp46
 70
     1
102
RTVSPropertyOp47
 70
     1
102
RTVSPropertyOp48
 70
     1
102
RTVSPropertyOp49
 70
     1
102
RTVSPropertyOp50
 70
     1
102
RTVSPropertyOp51
 70
     0
102
RTVSPropertyOp52
 70
     0
102
RTVSPropertyOp53
 70
     1
102
RTVSPropertyOp54
 70
     1
102
RTVSPropertyOp55
 70
     1
102
RTVSPropertyOp56
 70
     1
102
RTVSPropertyOp57
 70
     1
102
RTVSPropertyOp58
 70
     1
102
RTVSPropertyOp59
 70
     1
102
RTVSPropertyOp60
 70
     1
102
RTVSPropertyOp61
 70
     1
102
RTVSPropertyOp62
 70
     1
  0
XRECORD
  5
DFD9
102
{ACAD_REACTORS
330
DFD8
102
}
330
DFD8
100
AcDbXrecord
280
     1
102
RTVSPost2010Prop28
280
     0
102
RTVSPost2010PropOp28
 70
     1
102
RTVSPost2010Prop29
280
     1
102
RTVSPost2010PropOp29
 70
     1
102
RTVSPost2010Prop30
280
     1
102
RTVSPost2010PropOp30
 70
     1
102
RTVSPost2010Prop31
280
     0
102
RTVSPost2010PropOp31
 70
     1
102
RTVSPost2010Prop32
280
     0
102
RTVSPost2010PropOp32
 70
     1
102
RTVSPost2010Prop33
280
     0
102
RTVSPost2010PropOp33
 70
     1
102
RTVSPost2010Prop34
280
     0
102
RTVSPost2010PropOp34
 70
     1
102
RTVSPost2010Prop35
280
     0
102
RTVSPost2010PropOp35
 70
     1
102
RTVSPost2010Prop36
280
     0
102
RTVSPost2010PropOp36
 70
     1
102
RTVSPost2010Prop37
 90
       50
102
RTVSPost2010PropOp37
 70
     1
102
RTVSPost2010Prop38
140
0.0
102
RTVSPost2010PropOp38
 70
     1
102
RTVSPost2010Prop39
140
1.0
102
RTVSPost2010PropOp39
 70
     1
102
RTVSPost2010Prop40
 90
        0
102
RTVSPost2010PropOp40
 70
     1
102
RTVSPost2010Prop41ColorIndex
 90
       18
102
RTVSPost2010Prop41ColorRGB
 90
        0
102
RTVSPost2010PropOp41
 70
     1
102
RTVSPost2010Prop42
 90
       50
102
RTVSPost2010PropOp42
 70
     1
102
RTVSPost2010Prop43
 90
        3
102
RTVSPost2010PropOp43
 70
     1
102
RTVSPost2010Prop44ColorIndex
 90
        5
102
RTVSPost2010Prop44ColorRGB
 90
      255
102
RTVSPost2010PropOp44
 70
     1
102
RTVSPost2010Prop45
280
     0
102
RTVSPost2010PropOp45
 70
     1
102
RTVSPost2010Prop46
 90
       50
102
RTVSPost2010PropOp46
 70
     1
102
RTVSPost2010Prop47
 90
       50
102
RTVSPost2010PropOp47
 70
     1
102
RTVSPost2010Prop48
 90
       50
102
RTVSPost2010PropOp48
 70
     1
102
RTVSPost2010Prop49
280
     0
102
RTVSPost2010PropOp49
 70
     1
102
RTVSPost2010Prop50
 90
       50
102
RTVSPost2010PropOp50
 70
     1
102
RTVSPost2010Prop51ColorIndex
 90
      256
102
RTVSPost2010Prop51ColorRGB
 90
-16777216
102
RTVSPost2010PropOp51
 70
     0
102
RTVSPost2010Prop52
140
1.0
102
RTVSPost2010PropOp52
 70
     0
102
RTVSPost2010Prop53
 90
        2
102
RTVSPost2010PropOp53
 70
     1
102
RTVSPost2010Prop54
  1
strokes_ogs.tif
102
RTVSPost2010PropOp54
 70
     1
102
RTVSPost2010Prop55
280
     0
102
RTVSPost2010PropOp55
 70
     1
102
RTVSPost2010Prop56
140
1.0
102
RTVSPost2010PropOp56
 70
     1
102
RTVSPost2010Prop57
140
1.0
102
RTVSPost2010PropOp57
 70
     1
102
RTVSPropertyOp0
 70
     1
102
RTVSPropertyOp1
 70
     1
102
RTVSPropertyOp2
 70
     1
102
RTVSPropertyOp3
 70
     1
102
RTVSPropertyOp4
 70
     1
102
RTVSPropertyOp5
 70
     1
102
RTVSPropertyOp6
 70
     1
102
RTVSPropertyOp7
 70
     1
102
RTVSPropertyOp8
 70
     1
102
RTVSPropertyOp9
 70
     1
102
RTVSPropertyOp10
 70
     1
102
RTVSPropertyOp11
 70
     1
102
RTVSPropertyOp12
 70
     1
102
RTVSPropertyOp13
 70
     1
102
RTVSPropertyOp14
 70
     1
102
RTVSPropertyOp15
 70
     1
102
RTVSPropertyOp16
 70
     1
102
RTVSPropertyOp17
 70
     1
102
RTVSPropertyOp18
 70
     1
102
RTVSPropertyOp19
 70
     1
102
RTVSPropertyOp20
 70
     1
102
RTVSPropertyOp21
 70
     1
102
RTVSPropertyOp22
 70
     1
102
RTVSPropertyOp23
 70
     1
102
RTVSPropertyOp24
 70
     1
102
RTVSPropertyOp25
 70
     1
102
RTVSPropertyOp26
 70
     1
102
RTVSPropertyOp27
 70
     1
102
RTVSPropertyOp28
 70
     1
102
RTVSPropertyOp29
 70
     1
102
RTVSPropertyOp30
 70
     1
102
RTVSPropertyOp31
 70
     1
102
RTVSPropertyOp32
 70
     1
102
RTVSPropertyOp33
 70
     1
102
RTVSPropertyOp34
 70
     1
102
RTVSPropertyOp35
 70
     1
102
RTVSPropertyOp36
 70
     1
102
RTVSPropertyOp37
 70
     1
102
RTVSPropertyOp38
 70
     1
102
RTVSPropertyOp39
 70
     1
102
RTVSPropertyOp40
 70
     1
102
RTVSPropertyOp41
 70
     1
102
RTVSPropertyOp42
 70
     1
102
RTVSPropertyOp43
 70
     1
102
RTVSPropertyOp44
 70
     1
102
RTVSPropertyOp45
 70
     1
102
RTVSPropertyOp46
 70
     1
102
RTVSPropertyOp47
 70
     1
102
RTVSPropertyOp48
 70
     1
102
RTVSPropertyOp49
 70
     1
102
RTVSPropertyOp50
 70
     1
102
RTVSPropertyOp51
 70
     0
102
RTVSPropertyOp52
 70
     0
102
RTVSPropertyOp53
 70
     1
102
RTVSPropertyOp54
 70
     1
102
RTVSPropertyOp55
 70
     1
102
RTVSPropertyOp56
 70
     1
102
RTVSPropertyOp57
 70
     1
102
RTVSPropertyOp58
 70
     1
102
RTVSPropertyOp59
 70
     1
102
RTVSPropertyOp60
 70
     1
102
RTVSPropertyOp61
 70
     1
102
RTVSPropertyOp62
 70
     1
  0
XRECORD
  5
DFDB
102
{ACAD_REACTORS
330
DFDA
102
}
330
DFDA
100
AcDbXrecord
280
     1
102
RTVSPost2010Prop28
280
     0
102
RTVSPost2010PropOp28
 70
     1
102
RTVSPost2010Prop29
280
     1
102
RTVSPost2010PropOp29
 70
     1
102
RTVSPost2010Prop30
280
     1
102
RTVSPost2010PropOp30
 70
     1
102
RTVSPost2010Prop31
280
     0
102
RTVSPost2010PropOp31
 70
     1
102
RTVSPost2010Prop32
280
     0
102
RTVSPost2010PropOp32
 70
     1
102
RTVSPost2010Prop33
280
     0
102
RTVSPost2010PropOp33
 70
     1
102
RTVSPost2010Prop34
280
     0
102
RTVSPost2010PropOp34
 70
     1
102
RTVSPost2010Prop35
280
     0
102
RTVSPost2010PropOp35
 70
     1
102
RTVSPost2010Prop36
280
     0
102
RTVSPost2010PropOp36
 70
     1
102
RTVSPost2010Prop37
 90
       50
102
RTVSPost2010PropOp37
 70
     1
102
RTVSPost2010Prop38
140
0.0
102
RTVSPost2010PropOp38
 70
     1
102
RTVSPost2010Prop39
140
1.0
102
RTVSPost2010PropOp39
 70
     1
102
RTVSPost2010Prop40
 90
        0
102
RTVSPost2010PropOp40
 70
     1
102
RTVSPost2010Prop41ColorIndex
 90
       18
102
RTVSPost2010Prop41ColorRGB
 90
        0
102
RTVSPost2010PropOp41
 70
     1
102
RTVSPost2010Prop42
 90
       50
102
RTVSPost2010PropOp42
 70
     1
102
RTVSPost2010Prop43
 90
        3
102
RTVSPost2010PropOp43
 70
     1
102
RTVSPost2010Prop44ColorIndex
 90
        5
102
RTVSPost2010Prop44ColorRGB
 90
      255
102
RTVSPost2010PropOp44
 70
     1
102
RTVSPost2010Prop45
280
     0
102
RTVSPost2010PropOp45
 70
     1
102
RTVSPost2010Prop46
 90
       50
102
RTVSPost2010PropOp46
 70
     1
102
RTVSPost2010Prop47
 90
       50
102
RTVSPost2010PropOp47
 70
     1
102
RTVSPost2010Prop48
 90
       50
102
RTVSPost2010PropOp48
 70
     1
102
RTVSPost2010Prop49
280
     0
102
RTVSPost2010PropOp49
 70
     1
102
RTVSPost2010Prop50
 90
       50
102
RTVSPost2010PropOp50
 70
     1
102
RTVSPost2010Prop51ColorIndex
 90
      256
102
RTVSPost2010Prop51ColorRGB
 90
-16777216
102
RTVSPost2010PropOp51
 70
     0
102
RTVSPost2010Prop52
140
1.0
102
RTVSPost2010PropOp52
 70
     0
102
RTVSPost2010Prop53
 90
        2
102
RTVSPost2010PropOp53
 70
     1
102
RTVSPost2010Prop54
  1
strokes_ogs.tif
102
RTVSPost2010PropOp54
 70
     1
102
RTVSPost2010Prop55
280
     0
102
RTVSPost2010PropOp55
 70
     1
102
RTVSPost2010Prop56
140
1.0
102
RTVSPost2010PropOp56
 70
     1
102
RTVSPost2010Prop57
140
1.0
102
RTVSPost2010PropOp57
 70
     1
102
RTVSPropertyOp0
 70
     1
102
RTVSPropertyOp1
 70
     1
102
RTVSPropertyOp2
 70
     1
102
RTVSPropertyOp3
 70
     1
102
RTVSPropertyOp4
 70
     1
102
RTVSPropertyOp5
 70
     1
102
RTVSPropertyOp6
 70
     1
102
RTVSPropertyOp7
 70
     1
102
RTVSPropertyOp8
 70
     1
102
RTVSPropertyOp9
 70
     1
102
RTVSPropertyOp10
 70
     1
102
RTVSPropertyOp11
 70
     1
102
RTVSPropertyOp12
 70
     1
102
RTVSPropertyOp13
 70
     1
102
RTVSPropertyOp14
 70
     1
102
RTVSPropertyOp15
 70
     1
102
RTVSPropertyOp16
 70
     1
102
RTVSPropertyOp17
 70
     1
102
RTVSPropertyOp18
 70
     1
102
RTVSPropertyOp19
 70
     1
102
RTVSPropertyOp20
 70
     1
102
RTVSPropertyOp21
 70
     1
102
RTVSPropertyOp22
 70
     1
102
RTVSPropertyOp23
 70
     1
102
RTVSPropertyOp24
 70
     1
102
RTVSPropertyOp25
 70
     1
102
RTVSPropertyOp26
 70
     1
102
RTVSPropertyOp27
 70
     1
102
RTVSPropertyOp28
 70
     1
102
RTVSPropertyOp29
 70
     1
102
RTVSPropertyOp30
 70
     1
102
RTVSPropertyOp31
 70
     1
102
RTVSPropertyOp32
 70
     1
102
RTVSPropertyOp33
 70
     1
102
RTVSPropertyOp34
 70
     1
102
RTVSPropertyOp35
 70
     1
102
RTVSPropertyOp36
 70
     1
102
RTVSPropertyOp37
 70
     1
102
RTVSPropertyOp38
 70
     1
102
RTVSPropertyOp39
 70
     1
102
RTVSPropertyOp40
 70
     1
102
RTVSPropertyOp41
 70
     1
102
RTVSPropertyOp42
 70
     1
102
RTVSPropertyOp43
 70
     1
102
RTVSPropertyOp44
 70
     1
102
RTVSPropertyOp45
 70
     1
102
RTVSPropertyOp46
 70
     1
102
RTVSPropertyOp47
 70
     1
102
RTVSPropertyOp48
 70
     1
102
RTVSPropertyOp49
 70
     1
102
RTVSPropertyOp50
 70
     1
102
RTVSPropertyOp51
 70
     0
102
RTVSPropertyOp52
 70
     0
102
RTVSPropertyOp53
 70
     1
102
RTVSPropertyOp54
 70
     1
102
RTVSPropertyOp55
 70
     1
102
RTVSPropertyOp56
 70
     1
102
RTVSPropertyOp57
 70
     1
102
RTVSPropertyOp58
 70
     1
102
RTVSPropertyOp59
 70
     1
102
RTVSPropertyOp60
 70
     1
102
RTVSPropertyOp61
 70
     1
102
RTVSPropertyOp62
 70
     1
  0
XRECORD
  5
DFDD
102
{ACAD_REACTORS
330
DFDC
102
}
330
DFDC
100
AcDbXrecord
280
     1
102
RTVSPost2010Prop28
280
     0
102
RTVSPost2010PropOp28
 70
     1
102
RTVSPost2010Prop29
280
     1
102
RTVSPost2010PropOp29
 70
     1
102
RTVSPost2010Prop30
280
     1
102
RTVSPost2010PropOp30
 70
     1
102
RTVSPost2010Prop31
280
     0
102
RTVSPost2010PropOp31
 70
     1
102
RTVSPost2010Prop32
280
     0
102
RTVSPost2010PropOp32
 70
     1
102
RTVSPost2010Prop33
280
     0
102
RTVSPost2010PropOp33
 70
     1
102
RTVSPost2010Prop34
280
     0
102
RTVSPost2010PropOp34
 70
     1
102
RTVSPost2010Prop35
280
     0
102
RTVSPost2010PropOp35
 70
     1
102
RTVSPost2010Prop36
280
     0
102
RTVSPost2010PropOp36
 70
     1
102
RTVSPost2010Prop37
 90
       50
102
RTVSPost2010PropOp37
 70
     1
102
RTVSPost2010Prop38
140
0.0
102
RTVSPost2010PropOp38
 70
     1
102
RTVSPost2010Prop39
140
1.0
102
RTVSPost2010PropOp39
 70
     1
102
RTVSPost2010Prop40
 90
        0
102
RTVSPost2010PropOp40
 70
     1
102
RTVSPost2010Prop41ColorIndex
 90
       18
102
RTVSPost2010Prop41ColorRGB
 90
        0
102
RTVSPost2010PropOp41
 70
     1
102
RTVSPost2010Prop42
 90
       50
102
RTVSPost2010PropOp42
 70
     1
102
RTVSPost2010Prop43
 90
        3
102
RTVSPost2010PropOp43
 70
     1
102
RTVSPost2010Prop44ColorIndex
 90
        5
102
RTVSPost2010Prop44ColorRGB
 90
      255
102
RTVSPost2010PropOp44
 70
     1
102
RTVSPost2010Prop45
280
     0
102
RTVSPost2010PropOp45
 70
     1
102
RTVSPost2010Prop46
 90
       50
102
RTVSPost2010PropOp46
 70
     1
102
RTVSPost2010Prop47
 90
       50
102
RTVSPost2010PropOp47
 70
     1
102
RTVSPost2010Prop48
 90
       50
102
RTVSPost2010PropOp48
 70
     1
102
RTVSPost2010Prop49
280
     0
102
RTVSPost2010PropOp49
 70
     1
102
RTVSPost2010Prop50
 90
       50
102
RTVSPost2010PropOp50
 70
     1
102
RTVSPost2010Prop51ColorIndex
 90
      256
102
RTVSPost2010Prop51ColorRGB
 90
-16777216
102
RTVSPost2010PropOp51
 70
     0
102
RTVSPost2010Prop52
140
1.0
102
RTVSPost2010PropOp52
 70
     0
102
RTVSPost2010Prop53
 90
        2
102
RTVSPost2010PropOp53
 70
     1
102
RTVSPost2010Prop54
  1
strokes_ogs.tif
102
RTVSPost2010PropOp54
 70
     1
102
RTVSPost2010Prop55
280
     0
102
RTVSPost2010PropOp55
 70
     1
102
RTVSPost2010Prop56
140
1.0
102
RTVSPost2010PropOp56
 70
     1
102
RTVSPost2010Prop57
140
1.0
102
RTVSPost2010PropOp57
 70
     1
102
RTVSPropertyOp0
 70
     1
102
RTVSPropertyOp1
 70
     1
102
RTVSPropertyOp2
 70
     1
102
RTVSPropertyOp3
 70
     1
102
RTVSPropertyOp4
 70
     1
102
RTVSPropertyOp5
 70
     1
102
RTVSPropertyOp6
 70
     1
102
RTVSPropertyOp7
 70
     1
102
RTVSPropertyOp8
 70
     1
102
RTVSPropertyOp9
 70
     1
102
RTVSPropertyOp10
 70
     1
102
RTVSPropertyOp11
 70
     1
102
RTVSPropertyOp12
 70
     1
102
RTVSPropertyOp13
 70
     1
102
RTVSPropertyOp14
 70
     1
102
RTVSPropertyOp15
 70
     1
102
RTVSPropertyOp16
 70
     1
102
RTVSPropertyOp17
 70
     1
102
RTVSPropertyOp18
 70
     1
102
RTVSPropertyOp19
 70
     1
102
RTVSPropertyOp20
 70
     1
102
RTVSPropertyOp21
 70
     1
102
RTVSPropertyOp22
 70
     1
102
RTVSPropertyOp23
 70
     1
102
RTVSPropertyOp24
 70
     1
102
RTVSPropertyOp25
 70
     1
102
RTVSPropertyOp26
 70
     1
102
RTVSPropertyOp27
 70
     1
102
RTVSPropertyOp28
 70
     1
102
RTVSPropertyOp29
 70
     1
102
RTVSPropertyOp30
 70
     1
102
RTVSPropertyOp31
 70
     1
102
RTVSPropertyOp32
 70
     1
102
RTVSPropertyOp33
 70
     1
102
RTVSPropertyOp34
 70
     1
102
RTVSPropertyOp35
 70
     1
102
RTVSPropertyOp36
 70
     1
102
RTVSPropertyOp37
 70
     1
102
RTVSPropertyOp38
 70
     1
102
RTVSPropertyOp39
 70
     1
102
RTVSPropertyOp40
 70
     1
102
RTVSPropertyOp41
 70
     1
102
RTVSPropertyOp42
 70
     1
102
RTVSPropertyOp43
 70
     1
102
RTVSPropertyOp44
 70
     1
102
RTVSPropertyOp45
 70
     1
102
RTVSPropertyOp46
 70
     1
102
RTVSPropertyOp47
 70
     1
102
RTVSPropertyOp48
 70
     1
102
RTVSPropertyOp49
 70
     1
102
RTVSPropertyOp50
 70
     1
102
RTVSPropertyOp51
 70
     0
102
RTVSPropertyOp52
 70
     0
102
RTVSPropertyOp53
 70
     1
102
RTVSPropertyOp54
 70
     1
102
RTVSPropertyOp55
 70
     1
102
RTVSPropertyOp56
 70
     1
102
RTVSPropertyOp57
 70
     1
102
RTVSPropertyOp58
 70
     1
102
RTVSPropertyOp59
 70
     1
102
RTVSPropertyOp60
 70
     1
102
RTVSPropertyOp61
 70
     1
102
RTVSPropertyOp62
 70
     1
  0
XRECORD
  5
DFDF
102
{ACAD_REACTORS
330
DFDE
102
}
330
DFDE
100
AcDbXrecord
280
     1
102
RTVSPost2010Prop28
280
     0
102
RTVSPost2010PropOp28
 70
     1
102
RTVSPost2010Prop29
280
     1
102
RTVSPost2010PropOp29
 70
     1
102
RTVSPost2010Prop30
280
     1
102
RTVSPost2010PropOp30
 70
     1
102
RTVSPost2010Prop31
280
     0
102
RTVSPost2010PropOp31
 70
     1
102
RTVSPost2010Prop32
280
     0
102
RTVSPost2010PropOp32
 70
     1
102
RTVSPost2010Prop33
280
     0
102
RTVSPost2010PropOp33
 70
     1
102
RTVSPost2010Prop34
280
     0
102
RTVSPost2010PropOp34
 70
     1
102
RTVSPost2010Prop35
280
     0
102
RTVSPost2010PropOp35
 70
     1
102
RTVSPost2010Prop36
280
     0
102
RTVSPost2010PropOp36
 70
     1
102
RTVSPost2010Prop37
 90
       50
102
RTVSPost2010PropOp37
 70
     1
102
RTVSPost2010Prop38
140
0.0
102
RTVSPost2010PropOp38
 70
     1
102
RTVSPost2010Prop39
140
1.0
102
RTVSPost2010PropOp39
 70
     1
102
RTVSPost2010Prop40
 90
        0
102
RTVSPost2010PropOp40
 70
     1
102
RTVSPost2010Prop41ColorIndex
 90
       18
102
RTVSPost2010Prop41ColorRGB
 90
        0
102
RTVSPost2010PropOp41
 70
     1
102
RTVSPost2010Prop42
 90
       50
102
RTVSPost2010PropOp42
 70
     1
102
RTVSPost2010Prop43
 90
        3
102
RTVSPost2010PropOp43
 70
     1
102
RTVSPost2010Prop44ColorIndex
 90
        5
102
RTVSPost2010Prop44ColorRGB
 90
      255
102
RTVSPost2010PropOp44
 70
     1
102
RTVSPost2010Prop45
280
     0
102
RTVSPost2010PropOp45
 70
     1
102
RTVSPost2010Prop46
 90
       50
102
RTVSPost2010PropOp46
 70
     1
102
RTVSPost2010Prop47
 90
       50
102
RTVSPost2010PropOp47
 70
     1
102
RTVSPost2010Prop48
 90
       50
102
RTVSPost2010PropOp48
 70
     1
102
RTVSPost2010Prop49
280
     0
102
RTVSPost2010PropOp49
 70
     1
102
RTVSPost2010Prop50
 90
       50
102
RTVSPost2010PropOp50
 70
     1
102
RTVSPost2010Prop51ColorIndex
 90
      256
102
RTVSPost2010Prop51ColorRGB
 90
-16777216
102
RTVSPost2010PropOp51
 70
     0
102
RTVSPost2010Prop52
140
1.0
102
RTVSPost2010PropOp52
 70
     0
102
RTVSPost2010Prop53
 90
        2
102
RTVSPost2010PropOp53
 70
     1
102
RTVSPost2010Prop54
  1
strokes_ogs.tif
102
RTVSPost2010PropOp54
 70
     1
102
RTVSPost2010Prop55
280
     0
102
RTVSPost2010PropOp55
 70
     1
102
RTVSPost2010Prop56
140
1.0
102
RTVSPost2010PropOp56
 70
     1
102
RTVSPost2010Prop57
140
1.0
102
RTVSPost2010PropOp57
 70
     1
102
RTVSPropertyOp0
 70
     1
102
RTVSPropertyOp1
 70
     1
102
RTVSPropertyOp2
 70
     1
102
RTVSPropertyOp3
 70
     1
102
RTVSPropertyOp4
 70
     1
102
RTVSPropertyOp5
 70
     1
102
RTVSPropertyOp6
 70
     1
102
RTVSPropertyOp7
 70
     1
102
RTVSPropertyOp8
 70
     1
102
RTVSPropertyOp9
 70
     1
102
RTVSPropertyOp10
 70
     1
102
RTVSPropertyOp11
 70
     1
102
RTVSPropertyOp12
 70
     1
102
RTVSPropertyOp13
 70
     1
102
RTVSPropertyOp14
 70
     1
102
RTVSPropertyOp15
 70
     1
102
RTVSPropertyOp16
 70
     1
102
RTVSPropertyOp17
 70
     1
102
RTVSPropertyOp18
 70
     1
102
RTVSPropertyOp19
 70
     1
102
RTVSPropertyOp20
 70
     1
102
RTVSPropertyOp21
 70
     1
102
RTVSPropertyOp22
 70
     1
102
RTVSPropertyOp23
 70
     1
102
RTVSPropertyOp24
 70
     1
102
RTVSPropertyOp25
 70
     1
102
RTVSPropertyOp26
 70
     1
102
RTVSPropertyOp27
 70
     1
102
RTVSPropertyOp28
 70
     1
102
RTVSPropertyOp29
 70
     1
102
RTVSPropertyOp30
 70
     1
102
RTVSPropertyOp31
 70
     1
102
RTVSPropertyOp32
 70
     1
102
RTVSPropertyOp33
 70
     1
102
RTVSPropertyOp34
 70
     1
102
RTVSPropertyOp35
 70
     1
102
RTVSPropertyOp36
 70
     1
102
RTVSPropertyOp37
 70
     1
102
RTVSPropertyOp38
 70
     1
102
RTVSPropertyOp39
 70
     1
102
RTVSPropertyOp40
 70
     1
102
RTVSPropertyOp41
 70
     1
102
RTVSPropertyOp42
 70
     1
102
RTVSPropertyOp43
 70
     1
102
RTVSPropertyOp44
 70
     1
102
RTVSPropertyOp45
 70
     1
102
RTVSPropertyOp46
 70
     1
102
RTVSPropertyOp47
 70
     1
102
RTVSPropertyOp48
 70
     1
102
RTVSPropertyOp49
 70
     1
102
RTVSPropertyOp50
 70
     1
102
RTVSPropertyOp51
 70
     0
102
RTVSPropertyOp52
 70
     0
102
RTVSPropertyOp53
 70
     1
102
RTVSPropertyOp54
 70
     1
102
RTVSPropertyOp55
 70
     1
102
RTVSPropertyOp56
 70
     1
102
RTVSPropertyOp57
 70
     1
102
RTVSPropertyOp58
 70
     1
102
RTVSPropertyOp59
 70
     1
102
RTVSPropertyOp60
 70
     1
102
RTVSPropertyOp61
 70
     1
102
RTVSPropertyOp62
 70
     1
  0
XRECORD
  5
DFE7
102
{ACAD_REACTORS
330
DFE6
102
}
330
DFE6
100
AcDbXrecord
280
     1
102
RTVSPost2010Prop28
280
     0
102
RTVSPost2010PropOp28
 70
     1
102
RTVSPost2010Prop29
280
     1
102
RTVSPost2010PropOp29
 70
     1
102
RTVSPost2010Prop30
280
     1
102
RTVSPost2010PropOp30
 70
     1
102
RTVSPost2010Prop31
280
     0
102
RTVSPost2010PropOp31
 70
     1
102
RTVSPost2010Prop32
280
     0
102
RTVSPost2010PropOp32
 70
     1
102
RTVSPost2010Prop33
280
     0
102
RTVSPost2010PropOp33
 70
     1
102
RTVSPost2010Prop34
280
     0
102
RTVSPost2010PropOp34
 70
     1
102
RTVSPost2010Prop35
280
     0
102
RTVSPost2010PropOp35
 70
     1
102
RTVSPost2010Prop36
280
     0
102
RTVSPost2010PropOp36
 70
     1
102
RTVSPost2010Prop37
 90
       50
102
RTVSPost2010PropOp37
 70
     1
102
RTVSPost2010Prop38
140
0.0
102
RTVSPost2010PropOp38
 70
     1
102
RTVSPost2010Prop39
140
1.0
102
RTVSPost2010PropOp39
 70
     1
102
RTVSPost2010Prop40
 90
        0
102
RTVSPost2010PropOp40
 70
     1
102
RTVSPost2010Prop41ColorIndex
 90
       18
102
RTVSPost2010Prop41ColorRGB
 90
        0
102
RTVSPost2010PropOp41
 70
     1
102
RTVSPost2010Prop42
 90
       50
102
RTVSPost2010PropOp42
 70
     1
102
RTVSPost2010Prop43
 90
        3
102
RTVSPost2010PropOp43
 70
     1
102
RTVSPost2010Prop44ColorIndex
 90
        5
102
RTVSPost2010Prop44ColorRGB
 90
      255
102
RTVSPost2010PropOp44
 70
     1
102
RTVSPost2010Prop45
280
     0
102
RTVSPost2010PropOp45
 70
     1
102
RTVSPost2010Prop46
 90
       50
102
RTVSPost2010PropOp46
 70
     1
102
RTVSPost2010Prop47
 90
       50
102
RTVSPost2010PropOp47
 70
     1
102
RTVSPost2010Prop48
 90
       50
102
RTVSPost2010PropOp48
 70
     1
102
RTVSPost2010Prop49
280
     0
102
RTVSPost2010PropOp49
 70
     1
102
RTVSPost2010Prop50
 90
       50
102
RTVSPost2010PropOp50
 70
     1
102
RTVSPost2010Prop51ColorIndex
 90
      256
102
RTVSPost2010Prop51ColorRGB
 90
-16777216
102
RTVSPost2010PropOp51
 70
     0
102
RTVSPost2010Prop52
140
1.0
102
RTVSPost2010PropOp52
 70
     0
102
RTVSPost2010Prop53
 90
        2
102
RTVSPost2010PropOp53
 70
     1
102
RTVSPost2010Prop54
  1
strokes_ogs.tif
102
RTVSPost2010PropOp54
 70
     1
102
RTVSPost2010Prop55
280
     0
102
RTVSPost2010PropOp55
 70
     1
102
RTVSPost2010Prop56
140
1.0
102
RTVSPost2010PropOp56
 70
     1
102
RTVSPost2010Prop57
140
1.0
102
RTVSPost2010PropOp57
 70
     1
102
RTVSPropertyOp0
 70
     1
102
RTVSPropertyOp1
 70
     1
102
RTVSPropertyOp2
 70
     1
102
RTVSPropertyOp3
 70
     1
102
RTVSPropertyOp4
 70
     1
102
RTVSPropertyOp5
 70
     1
102
RTVSPropertyOp6
 70
     1
102
RTVSPropertyOp7
 70
     1
102
RTVSPropertyOp8
 70
     1
102
RTVSPropertyOp9
 70
     1
102
RTVSPropertyOp10
 70
     1
102
RTVSPropertyOp11
 70
     1
102
RTVSPropertyOp12
 70
     1
102
RTVSPropertyOp13
 70
     1
102
RTVSPropertyOp14
 70
     1
102
RTVSPropertyOp15
 70
     1
102
RTVSPropertyOp16
 70
     1
102
RTVSPropertyOp17
 70
     1
102
RTVSPropertyOp18
 70
     1
102
RTVSPropertyOp19
 70
     1
102
RTVSPropertyOp20
 70
     1
102
RTVSPropertyOp21
 70
     1
102
RTVSPropertyOp22
 70
     1
102
RTVSPropertyOp23
 70
     1
102
RTVSPropertyOp24
 70
     1
102
RTVSPropertyOp25
 70
     1
102
RTVSPropertyOp26
 70
     1
102
RTVSPropertyOp27
 70
     1
102
RTVSPropertyOp28
 70
     1
102
RTVSPropertyOp29
 70
     1
102
RTVSPropertyOp30
 70
     1
102
RTVSPropertyOp31
 70
     1
102
RTVSPropertyOp32
 70
     1
102
RTVSPropertyOp33
 70
     1
102
RTVSPropertyOp34
 70
     1
102
RTVSPropertyOp35
 70
     1
102
RTVSPropertyOp36
 70
     1
102
RTVSPropertyOp37
 70
     1
102
RTVSPropertyOp38
 70
     1
102
RTVSPropertyOp39
 70
     1
102
RTVSPropertyOp40
 70
     1
102
RTVSPropertyOp41
 70
     1
102
RTVSPropertyOp42
 70
     1
102
RTVSPropertyOp43
 70
     1
102
RTVSPropertyOp44
 70
     1
102
RTVSPropertyOp45
 70
     1
102
RTVSPropertyOp46
 70
     1
102
RTVSPropertyOp47
 70
     1
102
RTVSPropertyOp48
 70
     1
102
RTVSPropertyOp49
 70
     1
102
RTVSPropertyOp50
 70
     1
102
RTVSPropertyOp51
 70
     0
102
RTVSPropertyOp52
 70
     0
102
RTVSPropertyOp53
 70
     1
102
RTVSPropertyOp54
 70
     1
102
RTVSPropertyOp55
 70
     1
102
RTVSPropertyOp56
 70
     1
102
RTVSPropertyOp57
 70
     1
102
RTVSPropertyOp58
 70
     1
102
RTVSPropertyOp59
 70
     1
102
RTVSPropertyOp60
 70
     1
102
RTVSPropertyOp61
 70
     1
102
RTVSPropertyOp62
 70
     1
  0
XRECORD
  5
E003
102
{ACAD_REACTORS
330
E002
102
}
330
E002
100
AcDbXrecord
280
     1
102
RTVSPost2010Prop28
280
     0
102
RTVSPost2010PropOp28
 70
     0
102
RTVSPost2010Prop29
280
     1
102
RTVSPost2010PropOp29
 70
     0
102
RTVSPost2010Prop30
280
     1
102
RTVSPost2010PropOp30
 70
     0
102
RTVSPost2010Prop31
280
     0
102
RTVSPost2010PropOp31
 70
     0
102
RTVSPost2010Prop32
280
     0
102
RTVSPost2010PropOp32
 70
     0
102
RTVSPost2010Prop33
280
     0
102
RTVSPost2010PropOp33
 70
     0
102
RTVSPost2010Prop34
280
     0
102
RTVSPost2010PropOp34
 70
     0
102
RTVSPost2010Prop35
280
     0
102
RTVSPost2010PropOp35
 70
     0
102
RTVSPost2010Prop36
280
     0
102
RTVSPost2010PropOp36
 70
     0
102
RTVSPost2010Prop37
 90
       50
102
RTVSPost2010PropOp37
 70
     0
102
RTVSPost2010Prop38
140
0.0
102
RTVSPost2010PropOp38
 70
     0
102
RTVSPost2010Prop39
140
1.0
102
RTVSPost2010PropOp39
 70
     0
102
RTVSPost2010Prop40
 90
        0
102
RTVSPost2010PropOp40
 70
     0
102
RTVSPost2010Prop41ColorIndex
 90
       18
102
RTVSPost2010Prop41ColorRGB
 90
        0
102
RTVSPost2010PropOp41
 70
     0
102
RTVSPost2010Prop42
 90
       50
102
RTVSPost2010PropOp42
 70
     0
102
RTVSPost2010Prop43
 90
        3
102
RTVSPost2010PropOp43
 70
     0
102
RTVSPost2010Prop44ColorIndex
 90
        5
102
RTVSPost2010Prop44ColorRGB
 90
      255
102
RTVSPost2010PropOp44
 70
     0
102
RTVSPost2010Prop45
280
     0
102
RTVSPost2010PropOp45
 70
     0
102
RTVSPost2010Prop46
 90
       50
102
RTVSPost2010PropOp46
 70
     0
102
RTVSPost2010Prop47
 90
       50
102
RTVSPost2010PropOp47
 70
     0
102
RTVSPost2010Prop48
 90
       50
102
RTVSPost2010PropOp48
 70
     0
102
RTVSPost2010Prop49
280
     0
102
RTVSPost2010PropOp49
 70
     0
102
RTVSPost2010Prop50
 90
       50
102
RTVSPost2010PropOp50
 70
     0
102
RTVSPost2010Prop51ColorIndex
 90
      256
102
RTVSPost2010Prop51ColorRGB
 90
-16777216
102
RTVSPost2010PropOp51
 70
     0
102
RTVSPost2010Prop52
140
1.0
102
RTVSPost2010PropOp52
 70
     0
102
RTVSPost2010Prop53
 90
        2
102
RTVSPost2010PropOp53
 70
     0
102
RTVSPost2010Prop54
  1
strokes_ogs.tif
102
RTVSPost2010PropOp54
 70
     0
102
RTVSPost2010Prop55
280
     0
102
RTVSPost2010PropOp55
 70
     0
102
RTVSPost2010Prop56
140
1.0
102
RTVSPost2010PropOp56
 70
     0
102
RTVSPost2010Prop57
140
1.0
102
RTVSPost2010PropOp57
 70
     0
102
RTVSPropertyOp0
 70
     0
102
RTVSPropertyOp1
 70
     0
102
RTVSPropertyOp2
 70
     0
102
RTVSPropertyOp3
 70
     0
102
RTVSPropertyOp4
 70
     0
102
RTVSPropertyOp5
 70
     0
102
RTVSPropertyOp6
 70
     0
102
RTVSPropertyOp7
 70
     0
102
RTVSPropertyOp8
 70
     0
102
RTVSPropertyOp9
 70
     0
102
RTVSPropertyOp10
 70
     0
102
RTVSPropertyOp11
 70
     0
102
RTVSPropertyOp12
 70
     0
102
RTVSPropertyOp13
 70
     0
102
RTVSPropertyOp14
 70
     2
102
RTVSPropertyOp15
 70
     0
102
RTVSPropertyOp16
 70
     0
102
RTVSPropertyOp17
 70
     0
102
RTVSPropertyOp18
 70
     0
102
RTVSPropertyOp19
 70
     0
102
RTVSPropertyOp20
 70
     0
102
RTVSPropertyOp21
 70
     0
102
RTVSPropertyOp22
 70
     0
102
RTVSPropertyOp23
 70
     0
102
RTVSPropertyOp24
 70
     0
102
RTVSPropertyOp25
 70
     0
102
RTVSPropertyOp26
 70
     0
102
RTVSPropertyOp27
 70
     0
102
RTVSPropertyOp28
 70
     0
102
RTVSPropertyOp29
 70
     0
102
RTVSPropertyOp30
 70
     0
102
RTVSPropertyOp31
 70
     0
102
RTVSPropertyOp32
 70
     0
102
RTVSPropertyOp33
 70
     0
102
RTVSPropertyOp34
 70
     0
102
RTVSPropertyOp35
 70
     0
102
RTVSPropertyOp36
 70
     0
102
RTVSPropertyOp37
 70
     0
102
RTVSPropertyOp38
 70
     0
102
RTVSPropertyOp39
 70
     0
102
RTVSPropertyOp40
 70
     0
102
RTVSPropertyOp41
 70
     0
102
RTVSPropertyOp42
 70
     0
102
RTVSPropertyOp43
 70
     0
102
RTVSPropertyOp44
 70
     0
102
RTVSPropertyOp45
 70
     0
102
RTVSPropertyOp46
 70
     0
102
RTVSPropertyOp47
 70
     0
102
RTVSPropertyOp48
 70
     0
102
RTVSPropertyOp49
 70
     0
102
RTVSPropertyOp50
 70
     0
102
RTVSPropertyOp51
 70
     0
102
RTVSPropertyOp52
 70
     0
102
RTVSPropertyOp53
 70
     0
102
RTVSPropertyOp54
 70
     0
102
RTVSPropertyOp55
 70
     0
102
RTVSPropertyOp56
 70
     0
102
RTVSPropertyOp57
 70
     0
102
RTVSPropertyOp58
 70
     0
102
RTVSPropertyOp59
 70
     0
102
RTVSPropertyOp60
 70
     0
102
RTVSPropertyOp61
 70
     0
102
RTVSPropertyOp62
 70
     0
  0
XRECORD
  5
DFF3
102
{ACAD_REACTORS
330
DFF2
102
}
330
DFF2
100
AcDbXrecord
280
     1
102
RTVSPost2010Prop28
280
     0
102
RTVSPost2010PropOp28
 70
     1
102
RTVSPost2010Prop29
280
     1
102
RTVSPost2010PropOp29
 70
     1
102
RTVSPost2010Prop30
280
     1
102
RTVSPost2010PropOp30
 70
     1
102
RTVSPost2010Prop31
280
     0
102
RTVSPost2010PropOp31
 70
     1
102
RTVSPost2010Prop32
280
     0
102
RTVSPost2010PropOp32
 70
     1
102
RTVSPost2010Prop33
280
     0
102
RTVSPost2010PropOp33
 70
     1
102
RTVSPost2010Prop34
280
     0
102
RTVSPost2010PropOp34
 70
     1
102
RTVSPost2010Prop35
280
     0
102
RTVSPost2010PropOp35
 70
     1
102
RTVSPost2010Prop36
280
     0
102
RTVSPost2010PropOp36
 70
     1
102
RTVSPost2010Prop37
 90
       50
102
RTVSPost2010PropOp37
 70
     1
102
RTVSPost2010Prop38
140
0.0
102
RTVSPost2010PropOp38
 70
     1
102
RTVSPost2010Prop39
140
1.0
102
RTVSPost2010PropOp39
 70
     1
102
RTVSPost2010Prop40
 90
        0
102
RTVSPost2010PropOp40
 70
     1
102
RTVSPost2010Prop41ColorIndex
 90
       18
102
RTVSPost2010Prop41ColorRGB
 90
        0
102
RTVSPost2010PropOp41
 70
     1
102
RTVSPost2010Prop42
 90
       50
102
RTVSPost2010PropOp42
 70
     1
102
RTVSPost2010Prop43
 90
        3
102
RTVSPost2010PropOp43
 70
     1
102
RTVSPost2010Prop44ColorIndex
 90
        5
102
RTVSPost2010Prop44ColorRGB
 90
      255
102
RTVSPost2010PropOp44
 70
     1
102
RTVSPost2010Prop45
280
     0
102
RTVSPost2010PropOp45
 70
     1
102
RTVSPost2010Prop46
 90
       50
102
RTVSPost2010PropOp46
 70
     1
102
RTVSPost2010Prop47
 90
       50
102
RTVSPost2010PropOp47
 70
     1
102
RTVSPost2010Prop48
 90
       50
102
RTVSPost2010PropOp48
 70
     1
102
RTVSPost2010Prop49
280
     0
102
RTVSPost2010PropOp49
 70
     1
102
RTVSPost2010Prop50
 90
       50
102
RTVSPost2010PropOp50
 70
     1
102
RTVSPost2010Prop51ColorIndex
 90
      256
102
RTVSPost2010Prop51ColorRGB
 90
-16777216
102
RTVSPost2010PropOp51
 70
     0
102
RTVSPost2010Prop52
140
1.0
102
RTVSPost2010PropOp52
 70
     0
102
RTVSPost2010Prop53
 90
        2
102
RTVSPost2010PropOp53
 70
     1
102
RTVSPost2010Prop54
  1
strokes_ogs.tif
102
RTVSPost2010PropOp54
 70
     1
102
RTVSPost2010Prop55
280
     0
102
RTVSPost2010PropOp55
 70
     1
102
RTVSPost2010Prop56
140
1.0
102
RTVSPost2010PropOp56
 70
     1
102
RTVSPost2010Prop57
140
1.0
102
RTVSPost2010PropOp57
 70
     1
102
RTVSPropertyOp0
 70
     1
102
RTVSPropertyOp1
 70
     1
102
RTVSPropertyOp2
 70
     1
102
RTVSPropertyOp3
 70
     1
102
RTVSPropertyOp4
 70
     1
102
RTVSPropertyOp5
 70
     1
102
RTVSPropertyOp6
 70
     1
102
RTVSPropertyOp7
 70
     1
102
RTVSPropertyOp8
 70
     1
102
RTVSPropertyOp9
 70
     1
102
RTVSPropertyOp10
 70
     1
102
RTVSPropertyOp11
 70
     1
102
RTVSPropertyOp12
 70
     1
102
RTVSPropertyOp13
 70
     1
102
RTVSPropertyOp14
 70
     1
102
RTVSPropertyOp15
 70
     1
102
RTVSPropertyOp16
 70
     1
102
RTVSPropertyOp17
 70
     1
102
RTVSPropertyOp18
 70
     1
102
RTVSPropertyOp19
 70
     1
102
RTVSPropertyOp20
 70
     1
102
RTVSPropertyOp21
 70
     1
102
RTVSPropertyOp22
 70
     1
102
RTVSPropertyOp23
 70
     1
102
RTVSPropertyOp24
 70
     1
102
RTVSPropertyOp25
 70
     1
102
RTVSPropertyOp26
 70
     1
102
RTVSPropertyOp27
 70
     1
102
RTVSPropertyOp28
 70
     1
102
RTVSPropertyOp29
 70
     1
102
RTVSPropertyOp30
 70
     1
102
RTVSPropertyOp31
 70
     1
102
RTVSPropertyOp32
 70
     1
102
RTVSPropertyOp33
 70
     1
102
RTVSPropertyOp34
 70
     1
102
RTVSPropertyOp35
 70
     1
102
RTVSPropertyOp36
 70
     1
102
RTVSPropertyOp37
 70
     1
102
RTVSPropertyOp38
 70
     1
102
RTVSPropertyOp39
 70
     1
102
RTVSPropertyOp40
 70
     1
102
RTVSPropertyOp41
 70
     1
102
RTVSPropertyOp42
 70
     1
102
RTVSPropertyOp43
 70
     1
102
RTVSPropertyOp44
 70
     1
102
RTVSPropertyOp45
 70
     1
102
RTVSPropertyOp46
 70
     1
102
RTVSPropertyOp47
 70
     1
102
RTVSPropertyOp48
 70
     1
102
RTVSPropertyOp49
 70
     1
102
RTVSPropertyOp50
 70
     1
102
RTVSPropertyOp51
 70
     0
102
RTVSPropertyOp52
 70
     0
102
RTVSPropertyOp53
 70
     1
102
RTVSPropertyOp54
 70
     1
102
RTVSPropertyOp55
 70
     1
102
RTVSPropertyOp56
 70
     1
102
RTVSPropertyOp57
 70
     1
102
RTVSPropertyOp58
 70
     1
102
RTVSPropertyOp59
 70
     1
102
RTVSPropertyOp60
 70
     1
102
RTVSPropertyOp61
 70
     1
102
RTVSPropertyOp62
 70
     1
  0
XRECORD
  5
E005
102
{ACAD_REACTORS
330
E004
102
}
330
E004
100
AcDbXrecord
280
     1
102
RTVSPost2010Prop28
280
     0
102
RTVSPost2010PropOp28
 70
     0
102
RTVSPost2010Prop29
280
     1
102
RTVSPost2010PropOp29
 70
     0
102
RTVSPost2010Prop30
280
     1
102
RTVSPost2010PropOp30
 70
     0
102
RTVSPost2010Prop31
280
     0
102
RTVSPost2010PropOp31
 70
     0
102
RTVSPost2010Prop32
280
     0
102
RTVSPost2010PropOp32
 70
     0
102
RTVSPost2010Prop33
280
     0
102
RTVSPost2010PropOp33
 70
     0
102
RTVSPost2010Prop34
280
     0
102
RTVSPost2010PropOp34
 70
     0
102
RTVSPost2010Prop35
280
     0
102
RTVSPost2010PropOp35
 70
     0
102
RTVSPost2010Prop36
280
     0
102
RTVSPost2010PropOp36
 70
     0
102
RTVSPost2010Prop37
 90
       50
102
RTVSPost2010PropOp37
 70
     0
102
RTVSPost2010Prop38
140
0.0
102
RTVSPost2010PropOp38
 70
     0
102
RTVSPost2010Prop39
140
1.0
102
RTVSPost2010PropOp39
 70
     0
102
RTVSPost2010Prop40
 90
        0
102
RTVSPost2010PropOp40
 70
     0
102
RTVSPost2010Prop41ColorIndex
 90
       18
102
RTVSPost2010Prop41ColorRGB
 90
        0
102
RTVSPost2010PropOp41
 70
     0
102
RTVSPost2010Prop42
 90
       50
102
RTVSPost2010PropOp42
 70
     0
102
RTVSPost2010Prop43
 90
        3
102
RTVSPost2010PropOp43
 70
     0
102
RTVSPost2010Prop44ColorIndex
 90
        5
102
RTVSPost2010Prop44ColorRGB
 90
      255
102
RTVSPost2010PropOp44
 70
     0
102
RTVSPost2010Prop45
280
     0
102
RTVSPost2010PropOp45
 70
     0
102
RTVSPost2010Prop46
 90
       50
102
RTVSPost2010PropOp46
 70
     0
102
RTVSPost2010Prop47
 90
       50
102
RTVSPost2010PropOp47
 70
     0
102
RTVSPost2010Prop48
 90
       50
102
RTVSPost2010PropOp48
 70
     0
102
RTVSPost2010Prop49
280
     0
102
RTVSPost2010PropOp49
 70
     0
102
RTVSPost2010Prop50
 90
       50
102
RTVSPost2010PropOp50
 70
     0
102
RTVSPost2010Prop51ColorIndex
 90
      256
102
RTVSPost2010Prop51ColorRGB
 90
-16777216
102
RTVSPost2010PropOp51
 70
     0
102
RTVSPost2010Prop52
140
1.0
102
RTVSPost2010PropOp52
 70
     0
102
RTVSPost2010Prop53
 90
        2
102
RTVSPost2010PropOp53
 70
     0
102
RTVSPost2010Prop54
  1
strokes_ogs.tif
102
RTVSPost2010PropOp54
 70
     0
102
RTVSPost2010Prop55
280
     0
102
RTVSPost2010PropOp55
 70
     0
102
RTVSPost2010Prop56
140
1.0
102
RTVSPost2010PropOp56
 70
     0
102
RTVSPost2010Prop57
140
1.0
102
RTVSPost2010PropOp57
 70
     0
102
RTVSPropertyOp0
 70
     0
102
RTVSPropertyOp1
 70
     0
102
RTVSPropertyOp2
 70
     0
102
RTVSPropertyOp3
 70
     0
102
RTVSPropertyOp4
 70
     0
102
RTVSPropertyOp5
 70
     0
102
RTVSPropertyOp6
 70
     0
102
RTVSPropertyOp7
 70
     0
102
RTVSPropertyOp8
 70
     0
102
RTVSPropertyOp9
 70
     0
102
RTVSPropertyOp10
 70
     0
102
RTVSPropertyOp11
 70
     0
102
RTVSPropertyOp12
 70
     0
102
RTVSPropertyOp13
 70
     0
102
RTVSPropertyOp14
 70
     2
102
RTVSPropertyOp15
 70
     0
102
RTVSPropertyOp16
 70
     0
102
RTVSPropertyOp17
 70
     0
102
RTVSPropertyOp18
 70
     0
102
RTVSPropertyOp19
 70
     0
102
RTVSPropertyOp20
 70
     0
102
RTVSPropertyOp21
 70
     0
102
RTVSPropertyOp22
 70
     0
102
RTVSPropertyOp23
 70
     0
102
RTVSPropertyOp24
 70
     0
102
RTVSPropertyOp25
 70
     0
102
RTVSPropertyOp26
 70
     0
102
RTVSPropertyOp27
 70
     0
102
RTVSPropertyOp28
 70
     0
102
RTVSPropertyOp29
 70
     0
102
RTVSPropertyOp30
 70
     0
102
RTVSPropertyOp31
 70
     0
102
RTVSPropertyOp32
 70
     0
102
RTVSPropertyOp33
 70
     0
102
RTVSPropertyOp34
 70
     0
102
RTVSPropertyOp35
 70
     0
102
RTVSPropertyOp36
 70
     0
102
RTVSPropertyOp37
 70
     0
102
RTVSPropertyOp38
 70
     0
102
RTVSPropertyOp39
 70
     0
102
RTVSPropertyOp40
 70
     0
102
RTVSPropertyOp41
 70
     0
102
RTVSPropertyOp42
 70
     0
102
RTVSPropertyOp43
 70
     0
102
RTVSPropertyOp44
 70
     0
102
RTVSPropertyOp45
 70
     0
102
RTVSPropertyOp46
 70
     0
102
RTVSPropertyOp47
 70
     0
102
RTVSPropertyOp48
 70
     0
102
RTVSPropertyOp49
 70
     0
102
RTVSPropertyOp50
 70
     0
102
RTVSPropertyOp51
 70
     0
102
RTVSPropertyOp52
 70
     0
102
RTVSPropertyOp53
 70
     0
102
RTVSPropertyOp54
 70
     0
102
RTVSPropertyOp55
 70
     0
102
RTVSPropertyOp56
 70
     0
102
RTVSPropertyOp57
 70
     0
102
RTVSPropertyOp58
 70
     0
102
RTVSPropertyOp59
 70
     0
102
RTVSPropertyOp60
 70
     0
102
RTVSPropertyOp61
 70
     0
102
RTVSPropertyOp62
 70
     0
  0
XRECORD
  5
DFEB
102
{ACAD_REACTORS
330
DFEA
102
}
330
DFEA
100
AcDbXrecord
280
     1
102
RTVSPost2010Prop28
280
     0
102
RTVSPost2010PropOp28
 70
     1
102
RTVSPost2010Prop29
280
     1
102
RTVSPost2010PropOp29
 70
     1
102
RTVSPost2010Prop30
280
     1
102
RTVSPost2010PropOp30
 70
     1
102
RTVSPost2010Prop31
280
     0
102
RTVSPost2010PropOp31
 70
     1
102
RTVSPost2010Prop32
280
     0
102
RTVSPost2010PropOp32
 70
     1
102
RTVSPost2010Prop33
280
     0
102
RTVSPost2010PropOp33
 70
     1
102
RTVSPost2010Prop34
280
     0
102
RTVSPost2010PropOp34
 70
     1
102
RTVSPost2010Prop35
280
     0
102
RTVSPost2010PropOp35
 70
     1
102
RTVSPost2010Prop36
280
     0
102
RTVSPost2010PropOp36
 70
     1
102
RTVSPost2010Prop37
 90
       50
102
RTVSPost2010PropOp37
 70
     1
102
RTVSPost2010Prop38
140
0.0
102
RTVSPost2010PropOp38
 70
     1
102
RTVSPost2010Prop39
140
1.0
102
RTVSPost2010PropOp39
 70
     1
102
RTVSPost2010Prop40
 90
        0
102
RTVSPost2010PropOp40
 70
     1
102
RTVSPost2010Prop41ColorIndex
 90
       18
102
RTVSPost2010Prop41ColorRGB
 90
        0
102
RTVSPost2010PropOp41
 70
     1
102
RTVSPost2010Prop42
 90
       50
102
RTVSPost2010PropOp42
 70
     1
102
RTVSPost2010Prop43
 90
        3
102
RTVSPost2010PropOp43
 70
     1
102
RTVSPost2010Prop44ColorIndex
 90
        5
102
RTVSPost2010Prop44ColorRGB
 90
      255
102
RTVSPost2010PropOp44
 70
     1
102
RTVSPost2010Prop45
280
     0
102
RTVSPost2010PropOp45
 70
     1
102
RTVSPost2010Prop46
 90
       50
102
RTVSPost2010PropOp46
 70
     1
102
RTVSPost2010Prop47
 90
       50
102
RTVSPost2010PropOp47
 70
     1
102
RTVSPost2010Prop48
 90
       50
102
RTVSPost2010PropOp48
 70
     1
102
RTVSPost2010Prop49
280
     0
102
RTVSPost2010PropOp49
 70
     1
102
RTVSPost2010Prop50
 90
       50
102
RTVSPost2010PropOp50
 70
     1
102
RTVSPost2010Prop51ColorIndex
 90
      256
102
RTVSPost2010Prop51ColorRGB
 90
-16777216
102
RTVSPost2010PropOp51
 70
     0
102
RTVSPost2010Prop52
140
1.0
102
RTVSPost2010PropOp52
 70
     0
102
RTVSPost2010Prop53
 90
        2
102
RTVSPost2010PropOp53
 70
     1
102
RTVSPost2010Prop54
  1
strokes_ogs.tif
102
RTVSPost2010PropOp54
 70
     1
102
RTVSPost2010Prop55
280
     0
102
RTVSPost2010PropOp55
 70
     1
102
RTVSPost2010Prop56
140
1.0
102
RTVSPost2010PropOp56
 70
     1
102
RTVSPost2010Prop57
140
1.0
102
RTVSPost2010PropOp57
 70
     1
102
RTVSPropertyOp0
 70
     1
102
RTVSPropertyOp1
 70
     1
102
RTVSPropertyOp2
 70
     1
102
RTVSPropertyOp3
 70
     1
102
RTVSPropertyOp4
 70
     1
102
RTVSPropertyOp5
 70
     1
102
RTVSPropertyOp6
 70
     1
102
RTVSPropertyOp7
 70
     1
102
RTVSPropertyOp8
 70
     1
102
RTVSPropertyOp9
 70
     1
102
RTVSPropertyOp10
 70
     1
102
RTVSPropertyOp11
 70
     1
102
RTVSPropertyOp12
 70
     1
102
RTVSPropertyOp13
 70
     1
102
RTVSPropertyOp14
 70
     1
102
RTVSPropertyOp15
 70
     1
102
RTVSPropertyOp16
 70
     1
102
RTVSPropertyOp17
 70
     1
102
RTVSPropertyOp18
 70
     1
102
RTVSPropertyOp19
 70
     1
102
RTVSPropertyOp20
 70
     1
102
RTVSPropertyOp21
 70
     1
102
RTVSPropertyOp22
 70
     1
102
RTVSPropertyOp23
 70
     1
102
RTVSPropertyOp24
 70
     1
102
RTVSPropertyOp25
 70
     1
102
RTVSPropertyOp26
 70
     1
102
RTVSPropertyOp27
 70
     1
102
RTVSPropertyOp28
 70
     1
102
RTVSPropertyOp29
 70
     1
102
RTVSPropertyOp30
 70
     1
102
RTVSPropertyOp31
 70
     1
102
RTVSPropertyOp32
 70
     1
102
RTVSPropertyOp33
 70
     1
102
RTVSPropertyOp34
 70
     1
102
RTVSPropertyOp35
 70
     1
102
RTVSPropertyOp36
 70
     1
102
RTVSPropertyOp37
 70
     1
102
RTVSPropertyOp38
 70
     1
102
RTVSPropertyOp39
 70
     1
102
RTVSPropertyOp40
 70
     1
102
RTVSPropertyOp41
 70
     1
102
RTVSPropertyOp42
 70
     1
102
RTVSPropertyOp43
 70
     1
102
RTVSPropertyOp44
 70
     1
102
RTVSPropertyOp45
 70
     1
102
RTVSPropertyOp46
 70
     1
102
RTVSPropertyOp47
 70
     1
102
RTVSPropertyOp48
 70
     1
102
RTVSPropertyOp49
 70
     1
102
RTVSPropertyOp50
 70
     1
102
RTVSPropertyOp51
 70
     0
102
RTVSPropertyOp52
 70
     0
102
RTVSPropertyOp53
 70
     1
102
RTVSPropertyOp54
 70
     1
102
RTVSPropertyOp55
 70
     1
102
RTVSPropertyOp56
 70
     1
102
RTVSPropertyOp57
 70
     1
102
RTVSPropertyOp58
 70
     1
102
RTVSPropertyOp59
 70
     1
102
RTVSPropertyOp60
 70
     1
102
RTVSPropertyOp61
 70
     1
102
RTVSPropertyOp62
 70
     1
  0
XRECORD
  5
E001
102
{ACAD_REACTORS
330
E000
102
}
330
E000
100
AcDbXrecord
280
     1
102
RTVSPost2010Prop28
280
     0
102
RTVSPost2010PropOp28
 70
     1
102
RTVSPost2010Prop29
280
     1
102
RTVSPost2010PropOp29
 70
     1
102
RTVSPost2010Prop30
280
     1
102
RTVSPost2010PropOp30
 70
     1
102
RTVSPost2010Prop31
280
     0
102
RTVSPost2010PropOp31
 70
     1
102
RTVSPost2010Prop32
280
     0
102
RTVSPost2010PropOp32
 70
     1
102
RTVSPost2010Prop33
280
     0
102
RTVSPost2010PropOp33
 70
     1
102
RTVSPost2010Prop34
280
     0
102
RTVSPost2010PropOp34
 70
     1
102
RTVSPost2010Prop35
280
     0
102
RTVSPost2010PropOp35
 70
     1
102
RTVSPost2010Prop36
280
     0
102
RTVSPost2010PropOp36
 70
     1
102
RTVSPost2010Prop37
 90
       50
102
RTVSPost2010PropOp37
 70
     1
102
RTVSPost2010Prop38
140
0.0
102
RTVSPost2010PropOp38
 70
     1
102
RTVSPost2010Prop39
140
1.0
102
RTVSPost2010PropOp39
 70
     1
102
RTVSPost2010Prop40
 90
        0
102
RTVSPost2010PropOp40
 70
     1
102
RTVSPost2010Prop41ColorIndex
 90
       18
102
RTVSPost2010Prop41ColorRGB
 90
        0
102
RTVSPost2010PropOp41
 70
     1
102
RTVSPost2010Prop42
 90
       50
102
RTVSPost2010PropOp42
 70
     1
102
RTVSPost2010Prop43
 90
        3
102
RTVSPost2010PropOp43
 70
     1
102
RTVSPost2010Prop44ColorIndex
 90
        5
102
RTVSPost2010Prop44ColorRGB
 90
      255
102
RTVSPost2010PropOp44
 70
     1
102
RTVSPost2010Prop45
280
     0
102
RTVSPost2010PropOp45
 70
     1
102
RTVSPost2010Prop46
 90
       50
102
RTVSPost2010PropOp46
 70
     1
102
RTVSPost2010Prop47
 90
       50
102
RTVSPost2010PropOp47
 70
     1
102
RTVSPost2010Prop48
 90
       50
102
RTVSPost2010PropOp48
 70
     1
102
RTVSPost2010Prop49
280
     0
102
RTVSPost2010PropOp49
 70
     1
102
RTVSPost2010Prop50
 90
       50
102
RTVSPost2010PropOp50
 70
     1
102
RTVSPost2010Prop51ColorIndex
 90
      256
102
RTVSPost2010Prop51ColorRGB
 90
-16777216
102
RTVSPost2010PropOp51
 70
     0
102
RTVSPost2010Prop52
140
1.0
102
RTVSPost2010PropOp52
 70
     0
102
RTVSPost2010Prop53
 90
        2
102
RTVSPost2010PropOp53
 70
     1
102
RTVSPost2010Prop54
  1
strokes_ogs.tif
102
RTVSPost2010PropOp54
 70
     1
102
RTVSPost2010Prop55
280
     0
102
RTVSPost2010PropOp55
 70
     1
102
RTVSPost2010Prop56
140
1.0
102
RTVSPost2010PropOp56
 70
     1
102
RTVSPost2010Prop57
140
1.0
102
RTVSPost2010PropOp57
 70
     1
102
RTVSPropertyOp0
 70
     1
102
RTVSPropertyOp1
 70
     1
102
RTVSPropertyOp2
 70
     1
102
RTVSPropertyOp3
 70
     1
102
RTVSPropertyOp4
 70
     1
102
RTVSPropertyOp5
 70
     1
102
RTVSPropertyOp6
 70
     1
102
RTVSPropertyOp7
 70
     1
102
RTVSPropertyOp8
 70
     1
102
RTVSPropertyOp9
 70
     1
102
RTVSPropertyOp10
 70
     1
102
RTVSPropertyOp11
 70
     1
102
RTVSPropertyOp12
 70
     1
102
RTVSPropertyOp13
 70
     1
102
RTVSPropertyOp14
 70
     1
102
RTVSPropertyOp15
 70
     1
102
RTVSPropertyOp16
 70
     1
102
RTVSPropertyOp17
 70
     1
102
RTVSPropertyOp18
 70
     1
102
RTVSPropertyOp19
 70
     1
102
RTVSPropertyOp20
 70
     1
102
RTVSPropertyOp21
 70
     1
102
RTVSPropertyOp22
 70
     1
102
RTVSPropertyOp23
 70
     1
102
RTVSPropertyOp24
 70
     1
102
RTVSPropertyOp25
 70
     1
102
RTVSPropertyOp26
 70
     1
102
RTVSPropertyOp27
 70
     1
102
RTVSPropertyOp28
 70
     1
102
RTVSPropertyOp29
 70
     1
102
RTVSPropertyOp30
 70
     1
102
RTVSPropertyOp31
 70
     1
102
RTVSPropertyOp32
 70
     1
102
RTVSPropertyOp33
 70
     1
102
RTVSPropertyOp34
 70
     1
102
RTVSPropertyOp35
 70
     1
102
RTVSPropertyOp36
 70
     1
102
RTVSPropertyOp37
 70
     1
102
RTVSPropertyOp38
 70
     1
102
RTVSPropertyOp39
 70
     1
102
RTVSPropertyOp40
 70
     1
102
RTVSPropertyOp41
 70
     1
102
RTVSPropertyOp42
 70
     1
102
RTVSPropertyOp43
 70
     1
102
RTVSPropertyOp44
 70
     1
102
RTVSPropertyOp45
 70
     1
102
RTVSPropertyOp46
 70
     1
102
RTVSPropertyOp47
 70
     1
102
RTVSPropertyOp48
 70
     1
102
RTVSPropertyOp49
 70
     1
102
RTVSPropertyOp50
 70
     1
102
RTVSPropertyOp51
 70
     0
102
RTVSPropertyOp52
 70
     0
102
RTVSPropertyOp53
 70
     1
102
RTVSPropertyOp54
 70
     1
102
RTVSPropertyOp55
 70
     1
102
RTVSPropertyOp56
 70
     1
102
RTVSPropertyOp57
 70
     1
102
RTVSPropertyOp58
 70
     1
102
RTVSPropertyOp59
 70
     1
102
RTVSPropertyOp60
 70
     1
102
RTVSPropertyOp61
 70
     1
102
RTVSPropertyOp62
 70
     1
  0
XRECORD
  5
DFFF
102
{ACAD_REACTORS
330
DFFE
102
}
330
DFFE
100
AcDbXrecord
280
     1
102
RTVSPost2010Prop28
280
     0
102
RTVSPost2010PropOp28
 70
     1
102
RTVSPost2010Prop29
280
     1
102
RTVSPost2010PropOp29
 70
     1
102
RTVSPost2010Prop30
280
     1
102
RTVSPost2010PropOp30
 70
     1
102
RTVSPost2010Prop31
280
     0
102
RTVSPost2010PropOp31
 70
     1
102
RTVSPost2010Prop32
280
     0
102
RTVSPost2010PropOp32
 70
     1
102
RTVSPost2010Prop33
280
     0
102
RTVSPost2010PropOp33
 70
     1
102
RTVSPost2010Prop34
280
     0
102
RTVSPost2010PropOp34
 70
     1
102
RTVSPost2010Prop35
280
     0
102
RTVSPost2010PropOp35
 70
     1
102
RTVSPost2010Prop36
280
     0
102
RTVSPost2010PropOp36
 70
     1
102
RTVSPost2010Prop37
 90
       50
102
RTVSPost2010PropOp37
 70
     1
102
RTVSPost2010Prop38
140
0.0
102
RTVSPost2010PropOp38
 70
     1
102
RTVSPost2010Prop39
140
1.0
102
RTVSPost2010PropOp39
 70
     1
102
RTVSPost2010Prop40
 90
        0
102
RTVSPost2010PropOp40
 70
     1
102
RTVSPost2010Prop41ColorIndex
 90
       18
102
RTVSPost2010Prop41ColorRGB
 90
        0
102
RTVSPost2010PropOp41
 70
     1
102
RTVSPost2010Prop42
 90
       50
102
RTVSPost2010PropOp42
 70
     1
102
RTVSPost2010Prop43
 90
        3
102
RTVSPost2010PropOp43
 70
     1
102
RTVSPost2010Prop44ColorIndex
 90
        5
102
RTVSPost2010Prop44ColorRGB
 90
      255
102
RTVSPost2010PropOp44
 70
     1
102
RTVSPost2010Prop45
280
     0
102
RTVSPost2010PropOp45
 70
     1
102
RTVSPost2010Prop46
 90
       50
102
RTVSPost2010PropOp46
 70
     1
102
RTVSPost2010Prop47
 90
       50
102
RTVSPost2010PropOp47
 70
     1
102
RTVSPost2010Prop48
 90
       50
102
RTVSPost2010PropOp48
 70
     1
102
RTVSPost2010Prop49
280
     0
102
RTVSPost2010PropOp49
 70
     1
102
RTVSPost2010Prop50
 90
       50
102
RTVSPost2010PropOp50
 70
     1
102
RTVSPost2010Prop51ColorIndex
 90
      256
102
RTVSPost2010Prop51ColorRGB
 90
-16777216
102
RTVSPost2010PropOp51
 70
     0
102
RTVSPost2010Prop52
140
1.0
102
RTVSPost2010PropOp52
 70
     0
102
RTVSPost2010Prop53
 90
        2
102
RTVSPost2010PropOp53
 70
     1
102
RTVSPost2010Prop54
  1
strokes_ogs.tif
102
RTVSPost2010PropOp54
 70
     1
102
RTVSPost2010Prop55
280
     0
102
RTVSPost2010PropOp55
 70
     1
102
RTVSPost2010Prop56
140
1.0
102
RTVSPost2010PropOp56
 70
     1
102
RTVSPost2010Prop57
140
1.0
102
RTVSPost2010PropOp57
 70
     1
102
RTVSPropertyOp0
 70
     1
102
RTVSPropertyOp1
 70
     1
102
RTVSPropertyOp2
 70
     1
102
RTVSPropertyOp3
 70
     1
102
RTVSPropertyOp4
 70
     1
102
RTVSPropertyOp5
 70
     1
102
RTVSPropertyOp6
 70
     1
102
RTVSPropertyOp7
 70
     1
102
RTVSPropertyOp8
 70
     1
102
RTVSPropertyOp9
 70
     1
102
RTVSPropertyOp10
 70
     1
102
RTVSPropertyOp11
 70
     1
102
RTVSPropertyOp12
 70
     1
102
RTVSPropertyOp13
 70
     1
102
RTVSPropertyOp14
 70
     1
102
RTVSPropertyOp15
 70
     1
102
RTVSPropertyOp16
 70
     1
102
RTVSPropertyOp17
 70
     1
102
RTVSPropertyOp18
 70
     1
102
RTVSPropertyOp19
 70
     1
102
RTVSPropertyOp20
 70
     1
102
RTVSPropertyOp21
 70
     1
102
RTVSPropertyOp22
 70
     1
102
RTVSPropertyOp23
 70
     1
102
RTVSPropertyOp24
 70
     1
102
RTVSPropertyOp25
 70
     1
102
RTVSPropertyOp26
 70
     1
102
RTVSPropertyOp27
 70
     1
102
RTVSPropertyOp28
 70
     1
102
RTVSPropertyOp29
 70
     1
102
RTVSPropertyOp30
 70
     1
102
RTVSPropertyOp31
 70
     1
102
RTVSPropertyOp32
 70
     1
102
RTVSPropertyOp33
 70
     1
102
RTVSPropertyOp34
 70
     1
102
RTVSPropertyOp35
 70
     1
102
RTVSPropertyOp36
 70
     1
102
RTVSPropertyOp37
 70
     1
102
RTVSPropertyOp38
 70
     1
102
RTVSPropertyOp39
 70
     1
102
RTVSPropertyOp40
 70
     1
102
RTVSPropertyOp41
 70
     1
102
RTVSPropertyOp42
 70
     1
102
RTVSPropertyOp43
 70
     1
102
RTVSPropertyOp44
 70
     1
102
RTVSPropertyOp45
 70
     1
102
RTVSPropertyOp46
 70
     1
102
RTVSPropertyOp47
 70
     1
102
RTVSPropertyOp48
 70
     1
102
RTVSPropertyOp49
 70
     1
102
RTVSPropertyOp50
 70
     1
102
RTVSPropertyOp51
 70
     0
102
RTVSPropertyOp52
 70
     0
102
RTVSPropertyOp53
 70
     1
102
RTVSPropertyOp54
 70
     1
102
RTVSPropertyOp55
 70
     1
102
RTVSPropertyOp56
 70
     1
102
RTVSPropertyOp57
 70
     1
102
RTVSPropertyOp58
 70
     1
102
RTVSPropertyOp59
 70
     1
102
RTVSPropertyOp60
 70
     1
102
RTVSPropertyOp61
 70
     1
102
RTVSPropertyOp62
 70
     1
  0
XRECORD
  5
DFF9
102
{ACAD_REACTORS
330
DFF8
102
}
330
DFF8
100
AcDbXrecord
280
     1
102
RTVSPost2010Prop28
280
     0
102
RTVSPost2010PropOp28
 70
     1
102
RTVSPost2010Prop29
280
     1
102
RTVSPost2010PropOp29
 70
     1
102
RTVSPost2010Prop30
280
     1
102
RTVSPost2010PropOp30
 70
     1
102
RTVSPost2010Prop31
280
     0
102
RTVSPost2010PropOp31
 70
     1
102
RTVSPost2010Prop32
280
     0
102
RTVSPost2010PropOp32
 70
     1
102
RTVSPost2010Prop33
280
     0
102
RTVSPost2010PropOp33
 70
     1
102
RTVSPost2010Prop34
280
     0
102
RTVSPost2010PropOp34
 70
     1
102
RTVSPost2010Prop35
280
     0
102
RTVSPost2010PropOp35
 70
     1
102
RTVSPost2010Prop36
280
     0
102
RTVSPost2010PropOp36
 70
     1
102
RTVSPost2010Prop37
 90
       50
102
RTVSPost2010PropOp37
 70
     1
102
RTVSPost2010Prop38
140
0.0
102
RTVSPost2010PropOp38
 70
     1
102
RTVSPost2010Prop39
140
1.0
102
RTVSPost2010PropOp39
 70
     1
102
RTVSPost2010Prop40
 90
        0
102
RTVSPost2010PropOp40
 70
     1
102
RTVSPost2010Prop41ColorIndex
 90
       18
102
RTVSPost2010Prop41ColorRGB
 90
        0
102
RTVSPost2010PropOp41
 70
     1
102
RTVSPost2010Prop42
 90
       50
102
RTVSPost2010PropOp42
 70
     1
102
RTVSPost2010Prop43
 90
        3
102
RTVSPost2010PropOp43
 70
     1
102
RTVSPost2010Prop44ColorIndex
 90
        5
102
RTVSPost2010Prop44ColorRGB
 90
      255
102
RTVSPost2010PropOp44
 70
     1
102
RTVSPost2010Prop45
280
     0
102
RTVSPost2010PropOp45
 70
     1
102
RTVSPost2010Prop46
 90
       50
102
RTVSPost2010PropOp46
 70
     1
102
RTVSPost2010Prop47
 90
       50
102
RTVSPost2010PropOp47
 70
     1
102
RTVSPost2010Prop48
 90
       50
102
RTVSPost2010PropOp48
 70
     1
102
RTVSPost2010Prop49
280
     0
102
RTVSPost2010PropOp49
 70
     1
102
RTVSPost2010Prop50
 90
       50
102
RTVSPost2010PropOp50
 70
     1
102
RTVSPost2010Prop51ColorIndex
 90
      256
102
RTVSPost2010Prop51ColorRGB
 90
-16777216
102
RTVSPost2010PropOp51
 70
     0
102
RTVSPost2010Prop52
140
1.0
102
RTVSPost2010PropOp52
 70
     0
102
RTVSPost2010Prop53
 90
        2
102
RTVSPost2010PropOp53
 70
     1
102
RTVSPost2010Prop54
  1
strokes_ogs.tif
102
RTVSPost2010PropOp54
 70
     1
102
RTVSPost2010Prop55
280
     0
102
RTVSPost2010PropOp55
 70
     1
102
RTVSPost2010Prop56
140
1.0
102
RTVSPost2010PropOp56
 70
     1
102
RTVSPost2010Prop57
140
1.0
102
RTVSPost2010PropOp57
 70
     1
102
RTVSPropertyOp0
 70
     1
102
RTVSPropertyOp1
 70
     1
102
RTVSPropertyOp2
 70
     1
102
RTVSPropertyOp3
 70
     1
102
RTVSPropertyOp4
 70
     1
102
RTVSPropertyOp5
 70
     1
102
RTVSPropertyOp6
 70
     1
102
RTVSPropertyOp7
 70
     1
102
RTVSPropertyOp8
 70
     1
102
RTVSPropertyOp9
 70
     1
102
RTVSPropertyOp10
 70
     1
102
RTVSPropertyOp11
 70
     1
102
RTVSPropertyOp12
 70
     1
102
RTVSPropertyOp13
 70
     1
102
RTVSPropertyOp14
 70
     1
102
RTVSPropertyOp15
 70
     1
102
RTVSPropertyOp16
 70
     1
102
RTVSPropertyOp17
 70
     1
102
RTVSPropertyOp18
 70
     1
102
RTVSPropertyOp19
 70
     1
102
RTVSPropertyOp20
 70
     1
102
RTVSPropertyOp21
 70
     1
102
RTVSPropertyOp22
 70
     1
102
RTVSPropertyOp23
 70
     1
102
RTVSPropertyOp24
 70
     1
102
RTVSPropertyOp25
 70
     1
102
RTVSPropertyOp26
 70
     1
102
RTVSPropertyOp27
 70
     1
102
RTVSPropertyOp28
 70
     1
102
RTVSPropertyOp29
 70
     1
102
RTVSPropertyOp30
 70
     1
102
RTVSPropertyOp31
 70
     1
102
RTVSPropertyOp32
 70
     1
102
RTVSPropertyOp33
 70
     1
102
RTVSPropertyOp34
 70
     1
102
RTVSPropertyOp35
 70
     1
102
RTVSPropertyOp36
 70
     1
102
RTVSPropertyOp37
 70
     1
102
RTVSPropertyOp38
 70
     1
102
RTVSPropertyOp39
 70
     1
102
RTVSPropertyOp40
 70
     1
102
RTVSPropertyOp41
 70
     1
102
RTVSPropertyOp42
 70
     1
102
RTVSPropertyOp43
 70
     1
102
RTVSPropertyOp44
 70
     1
102
RTVSPropertyOp45
 70
     1
102
RTVSPropertyOp46
 70
     1
102
RTVSPropertyOp47
 70
     1
102
RTVSPropertyOp48
 70
     1
102
RTVSPropertyOp49
 70
     1
102
RTVSPropertyOp50
 70
     1
102
RTVSPropertyOp51
 70
     0
102
RTVSPropertyOp52
 70
     0
102
RTVSPropertyOp53
 70
     1
102
RTVSPropertyOp54
 70
     1
102
RTVSPropertyOp55
 70
     1
102
RTVSPropertyOp56
 70
     1
102
RTVSPropertyOp57
 70
     1
102
RTVSPropertyOp58
 70
     1
102
RTVSPropertyOp59
 70
     1
102
RTVSPropertyOp60
 70
     1
102
RTVSPropertyOp61
 70
     1
102
RTVSPropertyOp62
 70
     1
  0
XRECORD
  5
DFFB
102
{ACAD_REACTORS
330
DFFA
102
}
330
DFFA
100
AcDbXrecord
280
     1
102
RTVSPost2010Prop28
280
     0
102
RTVSPost2010PropOp28
 70
     1
102
RTVSPost2010Prop29
280
     1
102
RTVSPost2010PropOp29
 70
     1
102
RTVSPost2010Prop30
280
     1
102
RTVSPost2010PropOp30
 70
     1
102
RTVSPost2010Prop31
280
     0
102
RTVSPost2010PropOp31
 70
     1
102
RTVSPost2010Prop32
280
     0
102
RTVSPost2010PropOp32
 70
     1
102
RTVSPost2010Prop33
280
     0
102
RTVSPost2010PropOp33
 70
     1
102
RTVSPost2010Prop34
280
     0
102
RTVSPost2010PropOp34
 70
     1
102
RTVSPost2010Prop35
280
     0
102
RTVSPost2010PropOp35
 70
     1
102
RTVSPost2010Prop36
280
     0
102
RTVSPost2010PropOp36
 70
     1
102
RTVSPost2010Prop37
 90
       50
102
RTVSPost2010PropOp37
 70
     1
102
RTVSPost2010Prop38
140
0.0
102
RTVSPost2010PropOp38
 70
     1
102
RTVSPost2010Prop39
140
1.0
102
RTVSPost2010PropOp39
 70
     1
102
RTVSPost2010Prop40
 90
        0
102
RTVSPost2010PropOp40
 70
     1
102
RTVSPost2010Prop41ColorIndex
 90
       18
102
RTVSPost2010Prop41ColorRGB
 90
        0
102
RTVSPost2010PropOp41
 70
     1
102
RTVSPost2010Prop42
 90
       50
102
RTVSPost2010PropOp42
 70
     1
102
RTVSPost2010Prop43
 90
        3
102
RTVSPost2010PropOp43
 70
     1
102
RTVSPost2010Prop44ColorIndex
 90
        5
102
RTVSPost2010Prop44ColorRGB
 90
      255
102
RTVSPost2010PropOp44
 70
     1
102
RTVSPost2010Prop45
280
     0
102
RTVSPost2010PropOp45
 70
     1
102
RTVSPost2010Prop46
 90
       50
102
RTVSPost2010PropOp46
 70
     1
102
RTVSPost2010Prop47
 90
       50
102
RTVSPost2010PropOp47
 70
     1
102
RTVSPost2010Prop48
 90
       50
102
RTVSPost2010PropOp48
 70
     1
102
RTVSPost2010Prop49
280
     0
102
RTVSPost2010PropOp49
 70
     1
102
RTVSPost2010Prop50
 90
       50
102
RTVSPost2010PropOp50
 70
     1
102
RTVSPost2010Prop51ColorIndex
 90
      256
102
RTVSPost2010Prop51ColorRGB
 90
-16777216
102
RTVSPost2010PropOp51
 70
     0
102
RTVSPost2010Prop52
140
1.0
102
RTVSPost2010PropOp52
 70
     0
102
RTVSPost2010Prop53
 90
        2
102
RTVSPost2010PropOp53
 70
     1
102
RTVSPost2010Prop54
  1
strokes_ogs.tif
102
RTVSPost2010PropOp54
 70
     1
102
RTVSPost2010Prop55
280
     0
102
RTVSPost2010PropOp55
 70
     1
102
RTVSPost2010Prop56
140
1.0
102
RTVSPost2010PropOp56
 70
     1
102
RTVSPost2010Prop57
140
1.0
102
RTVSPost2010PropOp57
 70
     1
102
RTVSPropertyOp0
 70
     1
102
RTVSPropertyOp1
 70
     1
102
RTVSPropertyOp2
 70
     1
102
RTVSPropertyOp3
 70
     1
102
RTVSPropertyOp4
 70
     1
102
RTVSPropertyOp5
 70
     1
102
RTVSPropertyOp6
 70
     1
102
RTVSPropertyOp7
 70
     1
102
RTVSPropertyOp8
 70
     1
102
RTVSPropertyOp9
 70
     1
102
RTVSPropertyOp10
 70
     1
102
RTVSPropertyOp11
 70
     1
102
RTVSPropertyOp12
 70
     1
102
RTVSPropertyOp13
 70
     1
102
RTVSPropertyOp14
 70
     1
102
RTVSPropertyOp15
 70
     1
102
RTVSPropertyOp16
 70
     1
102
RTVSPropertyOp17
 70
     1
102
RTVSPropertyOp18
 70
     1
102
RTVSPropertyOp19
 70
     1
102
RTVSPropertyOp20
 70
     1
102
RTVSPropertyOp21
 70
     1
102
RTVSPropertyOp22
 70
     1
102
RTVSPropertyOp23
 70
     1
102
RTVSPropertyOp24
 70
     1
102
RTVSPropertyOp25
 70
     1
102
RTVSPropertyOp26
 70
     1
102
RTVSPropertyOp27
 70
     1
102
RTVSPropertyOp28
 70
     1
102
RTVSPropertyOp29
 70
     1
102
RTVSPropertyOp30
 70
     1
102
RTVSPropertyOp31
 70
     1
102
RTVSPropertyOp32
 70
     1
102
RTVSPropertyOp33
 70
     1
102
RTVSPropertyOp34
 70
     1
102
RTVSPropertyOp35
 70
     1
102
RTVSPropertyOp36
 70
     1
102
RTVSPropertyOp37
 70
     1
102
RTVSPropertyOp38
 70
     1
102
RTVSPropertyOp39
 70
     1
102
RTVSPropertyOp40
 70
     1
102
RTVSPropertyOp41
 70
     1
102
RTVSPropertyOp42
 70
     1
102
RTVSPropertyOp43
 70
     1
102
RTVSPropertyOp44
 70
     1
102
RTVSPropertyOp45
 70
     1
102
RTVSPropertyOp46
 70
     1
102
RTVSPropertyOp47
 70
     1
102
RTVSPropertyOp48
 70
     1
102
RTVSPropertyOp49
 70
     1
102
RTVSPropertyOp50
 70
     1
102
RTVSPropertyOp51
 70
     0
102
RTVSPropertyOp52
 70
     0
102
RTVSPropertyOp53
 70
     1
102
RTVSPropertyOp54
 70
     1
102
RTVSPropertyOp55
 70
     1
102
RTVSPropertyOp56
 70
     1
102
RTVSPropertyOp57
 70
     1
102
RTVSPropertyOp58
 70
     1
102
RTVSPropertyOp59
 70
     1
102
RTVSPropertyOp60
 70
     1
102
RTVSPropertyOp61
 70
     1
102
RTVSPropertyOp62
 70
     1
  0
XRECORD
  5
DFF1
102
{ACAD_REACTORS
330
DFF0
102
}
330
DFF0
100
AcDbXrecord
280
     1
102
RTVSPost2010Prop28
280
     0
102
RTVSPost2010PropOp28
 70
     1
102
RTVSPost2010Prop29
280
     1
102
RTVSPost2010PropOp29
 70
     1
102
RTVSPost2010Prop30
280
     1
102
RTVSPost2010PropOp30
 70
     1
102
RTVSPost2010Prop31
280
     0
102
RTVSPost2010PropOp31
 70
     1
102
RTVSPost2010Prop32
280
     0
102
RTVSPost2010PropOp32
 70
     1
102
RTVSPost2010Prop33
280
     0
102
RTVSPost2010PropOp33
 70
     1
102
RTVSPost2010Prop34
280
     0
102
RTVSPost2010PropOp34
 70
     1
102
RTVSPost2010Prop35
280
     0
102
RTVSPost2010PropOp35
 70
     1
102
RTVSPost2010Prop36
280
     0
102
RTVSPost2010PropOp36
 70
     1
102
RTVSPost2010Prop37
 90
       50
102
RTVSPost2010PropOp37
 70
     1
102
RTVSPost2010Prop38
140
0.0
102
RTVSPost2010PropOp38
 70
     1
102
RTVSPost2010Prop39
140
1.0
102
RTVSPost2010PropOp39
 70
     1
102
RTVSPost2010Prop40
 90
        0
102
RTVSPost2010PropOp40
 70
     1
102
RTVSPost2010Prop41ColorIndex
 90
       18
102
RTVSPost2010Prop41ColorRGB
 90
        0
102
RTVSPost2010PropOp41
 70
     1
102
RTVSPost2010Prop42
 90
       50
102
RTVSPost2010PropOp42
 70
     1
102
RTVSPost2010Prop43
 90
        3
102
RTVSPost2010PropOp43
 70
     1
102
RTVSPost2010Prop44ColorIndex
 90
        5
102
RTVSPost2010Prop44ColorRGB
 90
      255
102
RTVSPost2010PropOp44
 70
     1
102
RTVSPost2010Prop45
280
     0
102
RTVSPost2010PropOp45
 70
     1
102
RTVSPost2010Prop46
 90
       50
102
RTVSPost2010PropOp46
 70
     1
102
RTVSPost2010Prop47
 90
       50
102
RTVSPost2010PropOp47
 70
     1
102
RTVSPost2010Prop48
 90
       50
102
RTVSPost2010PropOp48
 70
     1
102
RTVSPost2010Prop49
280
     0
102
RTVSPost2010PropOp49
 70
     1
102
RTVSPost2010Prop50
 90
       50
102
RTVSPost2010PropOp50
 70
     1
102
RTVSPost2010Prop51ColorIndex
 90
      256
102
RTVSPost2010Prop51ColorRGB
 90
-16777216
102
RTVSPost2010PropOp51
 70
     0
102
RTVSPost2010Prop52
140
1.0
102
RTVSPost2010PropOp52
 70
     0
102
RTVSPost2010Prop53
 90
        2
102
RTVSPost2010PropOp53
 70
     1
102
RTVSPost2010Prop54
  1
strokes_ogs.tif
102
RTVSPost2010PropOp54
 70
     1
102
RTVSPost2010Prop55
280
     0
102
RTVSPost2010PropOp55
 70
     1
102
RTVSPost2010Prop56
140
1.0
102
RTVSPost2010PropOp56
 70
     1
102
RTVSPost2010Prop57
140
1.0
102
RTVSPost2010PropOp57
 70
     1
102
RTVSPropertyOp0
 70
     1
102
RTVSPropertyOp1
 70
     1
102
RTVSPropertyOp2
 70
     1
102
RTVSPropertyOp3
 70
     1
102
RTVSPropertyOp4
 70
     1
102
RTVSPropertyOp5
 70
     1
102
RTVSPropertyOp6
 70
     1
102
RTVSPropertyOp7
 70
     1
102
RTVSPropertyOp8
 70
     1
102
RTVSPropertyOp9
 70
     1
102
RTVSPropertyOp10
 70
     1
102
RTVSPropertyOp11
 70
     1
102
RTVSPropertyOp12
 70
     1
102
RTVSPropertyOp13
 70
     1
102
RTVSPropertyOp14
 70
     1
102
RTVSPropertyOp15
 70
     1
102
RTVSPropertyOp16
 70
     1
102
RTVSPropertyOp17
 70
     1
102
RTVSPropertyOp18
 70
     1
102
RTVSPropertyOp19
 70
     1
102
RTVSPropertyOp20
 70
     1
102
RTVSPropertyOp21
 70
     1
102
RTVSPropertyOp22
 70
     1
102
RTVSPropertyOp23
 70
     1
102
RTVSPropertyOp24
 70
     1
102
RTVSPropertyOp25
 70
     1
102
RTVSPropertyOp26
 70
     1
102
RTVSPropertyOp27
 70
     1
102
RTVSPropertyOp28
 70
     1
102
RTVSPropertyOp29
 70
     1
102
RTVSPropertyOp30
 70
     1
102
RTVSPropertyOp31
 70
     1
102
RTVSPropertyOp32
 70
     1
102
RTVSPropertyOp33
 70
     1
102
RTVSPropertyOp34
 70
     1
102
RTVSPropertyOp35
 70
     1
102
RTVSPropertyOp36
 70
     1
102
RTVSPropertyOp37
 70
     1
102
RTVSPropertyOp38
 70
     1
102
RTVSPropertyOp39
 70
     1
102
RTVSPropertyOp40
 70
     1
102
RTVSPropertyOp41
 70
     1
102
RTVSPropertyOp42
 70
     1
102
RTVSPropertyOp43
 70
     1
102
RTVSPropertyOp44
 70
     1
102
RTVSPropertyOp45
 70
     1
102
RTVSPropertyOp46
 70
     1
102
RTVSPropertyOp47
 70
     1
102
RTVSPropertyOp48
 70
     1
102
RTVSPropertyOp49
 70
     1
102
RTVSPropertyOp50
 70
     1
102
RTVSPropertyOp51
 70
     0
102
RTVSPropertyOp52
 70
     0
102
RTVSPropertyOp53
 70
     1
102
RTVSPropertyOp54
 70
     1
102
RTVSPropertyOp55
 70
     1
102
RTVSPropertyOp56
 70
     1
102
RTVSPropertyOp57
 70
     1
102
RTVSPropertyOp58
 70
     1
102
RTVSPropertyOp59
 70
     1
102
RTVSPropertyOp60
 70
     1
102
RTVSPropertyOp61
 70
     1
102
RTVSPropertyOp62
 70
     1
  0
XRECORD
  5
DFE5
102
{ACAD_REACTORS
330
DFE4
102
}
330
DFE4
100
AcDbXrecord
280
     1
102
RTVSPost2010Prop28
280
     0
102
RTVSPost2010PropOp28
 70
     1
102
RTVSPost2010Prop29
280
     1
102
RTVSPost2010PropOp29
 70
     1
102
RTVSPost2010Prop30
280
     1
102
RTVSPost2010PropOp30
 70
     1
102
RTVSPost2010Prop31
280
     0
102
RTVSPost2010PropOp31
 70
     1
102
RTVSPost2010Prop32
280
     0
102
RTVSPost2010PropOp32
 70
     1
102
RTVSPost2010Prop33
280
     0
102
RTVSPost2010PropOp33
 70
     1
102
RTVSPost2010Prop34
280
     0
102
RTVSPost2010PropOp34
 70
     1
102
RTVSPost2010Prop35
280
     0
102
RTVSPost2010PropOp35
 70
     1
102
RTVSPost2010Prop36
280
     0
102
RTVSPost2010PropOp36
 70
     1
102
RTVSPost2010Prop37
 90
       50
102
RTVSPost2010PropOp37
 70
     1
102
RTVSPost2010Prop38
140
0.0
102
RTVSPost2010PropOp38
 70
     1
102
RTVSPost2010Prop39
140
1.0
102
RTVSPost2010PropOp39
 70
     1
102
RTVSPost2010Prop40
 90
        0
102
RTVSPost2010PropOp40
 70
     1
102
RTVSPost2010Prop41ColorIndex
 90
       18
102
RTVSPost2010Prop41ColorRGB
 90
        0
102
RTVSPost2010PropOp41
 70
     1
102
RTVSPost2010Prop42
 90
       50
102
RTVSPost2010PropOp42
 70
     1
102
RTVSPost2010Prop43
 90
        3
102
RTVSPost2010PropOp43
 70
     1
102
RTVSPost2010Prop44ColorIndex
 90
        5
102
RTVSPost2010Prop44ColorRGB
 90
      255
102
RTVSPost2010PropOp44
 70
     1
102
RTVSPost2010Prop45
280
     0
102
RTVSPost2010PropOp45
 70
     1
102
RTVSPost2010Prop46
 90
       50
102
RTVSPost2010PropOp46
 70
     1
102
RTVSPost2010Prop47
 90
       50
102
RTVSPost2010PropOp47
 70
     1
102
RTVSPost2010Prop48
 90
       50
102
RTVSPost2010PropOp48
 70
     1
102
RTVSPost2010Prop49
280
     0
102
RTVSPost2010PropOp49
 70
     1
102
RTVSPost2010Prop50
 90
       50
102
RTVSPost2010PropOp50
 70
     1
102
RTVSPost2010Prop51ColorIndex
 90
      256
102
RTVSPost2010Prop51ColorRGB
 90
-16777216
102
RTVSPost2010PropOp51
 70
     0
102
RTVSPost2010Prop52
140
1.0
102
RTVSPost2010PropOp52
 70
     0
102
RTVSPost2010Prop53
 90
        2
102
RTVSPost2010PropOp53
 70
     1
102
RTVSPost2010Prop54
  1
strokes_ogs.tif
102
RTVSPost2010PropOp54
 70
     1
102
RTVSPost2010Prop55
280
     0
102
RTVSPost2010PropOp55
 70
     1
102
RTVSPost2010Prop56
140
1.0
102
RTVSPost2010PropOp56
 70
     1
102
RTVSPost2010Prop57
140
1.0
102
RTVSPost2010PropOp57
 70
     1
102
RTVSPropertyOp0
 70
     1
102
RTVSPropertyOp1
 70
     1
102
RTVSPropertyOp2
 70
     1
102
RTVSPropertyOp3
 70
     1
102
RTVSPropertyOp4
 70
     1
102
RTVSPropertyOp5
 70
     1
102
RTVSPropertyOp6
 70
     1
102
RTVSPropertyOp7
 70
     1
102
RTVSPropertyOp8
 70
     1
102
RTVSPropertyOp9
 70
     1
102
RTVSPropertyOp10
 70
     1
102
RTVSPropertyOp11
 70
     1
102
RTVSPropertyOp12
 70
     1
102
RTVSPropertyOp13
 70
     1
102
RTVSPropertyOp14
 70
     1
102
RTVSPropertyOp15
 70
     1
102
RTVSPropertyOp16
 70
     1
102
RTVSPropertyOp17
 70
     1
102
RTVSPropertyOp18
 70
     1
102
RTVSPropertyOp19
 70
     1
102
RTVSPropertyOp20
 70
     1
102
RTVSPropertyOp21
 70
     1
102
RTVSPropertyOp22
 70
     1
102
RTVSPropertyOp23
 70
     1
102
RTVSPropertyOp24
 70
     1
102
RTVSPropertyOp25
 70
     1
102
RTVSPropertyOp26
 70
     1
102
RTVSPropertyOp27
 70
     1
102
RTVSPropertyOp28
 70
     1
102
RTVSPropertyOp29
 70
     1
102
RTVSPropertyOp30
 70
     1
102
RTVSPropertyOp31
 70
     1
102
RTVSPropertyOp32
 70
     1
102
RTVSPropertyOp33
 70
     1
102
RTVSPropertyOp34
 70
     1
102
RTVSPropertyOp35
 70
     1
102
RTVSPropertyOp36
 70
     1
102
RTVSPropertyOp37
 70
     1
102
RTVSPropertyOp38
 70
     1
102
RTVSPropertyOp39
 70
     1
102
RTVSPropertyOp40
 70
     1
102
RTVSPropertyOp41
 70
     1
102
RTVSPropertyOp42
 70
     1
102
RTVSPropertyOp43
 70
     1
102
RTVSPropertyOp44
 70
     1
102
RTVSPropertyOp45
 70
     1
102
RTVSPropertyOp46
 70
     1
102
RTVSPropertyOp47
 70
     1
102
RTVSPropertyOp48
 70
     1
102
RTVSPropertyOp49
 70
     1
102
RTVSPropertyOp50
 70
     1
102
RTVSPropertyOp51
 70
     0
102
RTVSPropertyOp52
 70
     0
102
RTVSPropertyOp53
 70
     1
102
RTVSPropertyOp54
 70
     1
102
RTVSPropertyOp55
 70
     1
102
RTVSPropertyOp56
 70
     1
102
RTVSPropertyOp57
 70
     1
102
RTVSPropertyOp58
 70
     1
102
RTVSPropertyOp59
 70
     1
102
RTVSPropertyOp60
 70
     1
102
RTVSPropertyOp61
 70
     1
102
RTVSPropertyOp62
 70
     1
  0
XRECORD
  5
DFFD
102
{ACAD_REACTORS
330
DFFC
102
}
330
DFFC
100
AcDbXrecord
280
     1
102
RTVSPost2010Prop28
280
     0
102
RTVSPost2010PropOp28
 70
     1
102
RTVSPost2010Prop29
280
     1
102
RTVSPost2010PropOp29
 70
     1
102
RTVSPost2010Prop30
280
     1
102
RTVSPost2010PropOp30
 70
     1
102
RTVSPost2010Prop31
280
     0
102
RTVSPost2010PropOp31
 70
     1
102
RTVSPost2010Prop32
280
     0
102
RTVSPost2010PropOp32
 70
     1
102
RTVSPost2010Prop33
280
     0
102
RTVSPost2010PropOp33
 70
     1
102
RTVSPost2010Prop34
280
     0
102
RTVSPost2010PropOp34
 70
     1
102
RTVSPost2010Prop35
280
     0
102
RTVSPost2010PropOp35
 70
     1
102
RTVSPost2010Prop36
280
     0
102
RTVSPost2010PropOp36
 70
     1
102
RTVSPost2010Prop37
 90
       50
102
RTVSPost2010PropOp37
 70
     1
102
RTVSPost2010Prop38
140
0.0
102
RTVSPost2010PropOp38
 70
     1
102
RTVSPost2010Prop39
140
1.0
102
RTVSPost2010PropOp39
 70
     1
102
RTVSPost2010Prop40
 90
        0
102
RTVSPost2010PropOp40
 70
     1
102
RTVSPost2010Prop41ColorIndex
 90
       18
102
RTVSPost2010Prop41ColorRGB
 90
        0
102
RTVSPost2010PropOp41
 70
     1
102
RTVSPost2010Prop42
 90
       50
102
RTVSPost2010PropOp42
 70
     1
102
RTVSPost2010Prop43
 90
        3
102
RTVSPost2010PropOp43
 70
     1
102
RTVSPost2010Prop44ColorIndex
 90
        5
102
RTVSPost2010Prop44ColorRGB
 90
      255
102
RTVSPost2010PropOp44
 70
     1
102
RTVSPost2010Prop45
280
     0
102
RTVSPost2010PropOp45
 70
     1
102
RTVSPost2010Prop46
 90
       50
102
RTVSPost2010PropOp46
 70
     1
102
RTVSPost2010Prop47
 90
       50
102
RTVSPost2010PropOp47
 70
     1
102
RTVSPost2010Prop48
 90
       50
102
RTVSPost2010PropOp48
 70
     1
102
RTVSPost2010Prop49
280
     0
102
RTVSPost2010PropOp49
 70
     1
102
RTVSPost2010Prop50
 90
       50
102
RTVSPost2010PropOp50
 70
     1
102
RTVSPost2010Prop51ColorIndex
 90
      256
102
RTVSPost2010Prop51ColorRGB
 90
-16777216
102
RTVSPost2010PropOp51
 70
     0
102
RTVSPost2010Prop52
140
1.0
102
RTVSPost2010PropOp52
 70
     0
102
RTVSPost2010Prop53
 90
        2
102
RTVSPost2010PropOp53
 70
     1
102
RTVSPost2010Prop54
  1
strokes_ogs.tif
102
RTVSPost2010PropOp54
 70
     1
102
RTVSPost2010Prop55
280
     0
102
RTVSPost2010PropOp55
 70
     1
102
RTVSPost2010Prop56
140
1.0
102
RTVSPost2010PropOp56
 70
     1
102
RTVSPost2010Prop57
140
1.0
102
RTVSPost2010PropOp57
 70
     1
102
RTVSPropertyOp0
 70
     1
102
RTVSPropertyOp1
 70
     1
102
RTVSPropertyOp2
 70
     1
102
RTVSPropertyOp3
 70
     1
102
RTVSPropertyOp4
 70
     1
102
RTVSPropertyOp5
 70
     1
102
RTVSPropertyOp6
 70
     1
102
RTVSPropertyOp7
 70
     1
102
RTVSPropertyOp8
 70
     1
102
RTVSPropertyOp9
 70
     1
102
RTVSPropertyOp10
 70
     1
102
RTVSPropertyOp11
 70
     1
102
RTVSPropertyOp12
 70
     1
102
RTVSPropertyOp13
 70
     1
102
RTVSPropertyOp14
 70
     1
102
RTVSPropertyOp15
 70
     1
102
RTVSPropertyOp16
 70
     1
102
RTVSPropertyOp17
 70
     1
102
RTVSPropertyOp18
 70
     1
102
RTVSPropertyOp19
 70
     1
102
RTVSPropertyOp20
 70
     1
102
RTVSPropertyOp21
 70
     1
102
RTVSPropertyOp22
 70
     1
102
RTVSPropertyOp23
 70
     1
102
RTVSPropertyOp24
 70
     1
102
RTVSPropertyOp25
 70
     1
102
RTVSPropertyOp26
 70
     1
102
RTVSPropertyOp27
 70
     1
102
RTVSPropertyOp28
 70
     1
102
RTVSPropertyOp29
 70
     1
102
RTVSPropertyOp30
 70
     1
102
RTVSPropertyOp31
 70
     1
102
RTVSPropertyOp32
 70
     1
102
RTVSPropertyOp33
 70
     1
102
RTVSPropertyOp34
 70
     1
102
RTVSPropertyOp35
 70
     1
102
RTVSPropertyOp36
 70
     1
102
RTVSPropertyOp37
 70
     1
102
RTVSPropertyOp38
 70
     1
102
RTVSPropertyOp39
 70
     1
102
RTVSPropertyOp40
 70
     1
102
RTVSPropertyOp41
 70
     1
102
RTVSPropertyOp42
 70
     1
102
RTVSPropertyOp43
 70
     1
102
RTVSPropertyOp44
 70
     1
102
RTVSPropertyOp45
 70
     1
102
RTVSPropertyOp46
 70
     1
102
RTVSPropertyOp47
 70
     1
102
RTVSPropertyOp48
 70
     1
102
RTVSPropertyOp49
 70
     1
102
RTVSPropertyOp50
 70
     1
102
RTVSPropertyOp51
 70
     0
102
RTVSPropertyOp52
 70
     0
102
RTVSPropertyOp53
 70
     1
102
RTVSPropertyOp54
 70
     1
102
RTVSPropertyOp55
 70
     1
102
RTVSPropertyOp56
 70
     1
102
RTVSPropertyOp57
 70
     1
102
RTVSPropertyOp58
 70
     1
102
RTVSPropertyOp59
 70
     1
102
RTVSPropertyOp60
 70
     1
102
RTVSPropertyOp61
 70
     1
102
RTVSPropertyOp62
 70
     1
  0
ENDSEC
  0
EOF
